<?xml version="1.0" standalone="no"?>
<!DOCTYPE svg PUBLIC "-//W3C//DTD SVG 1.1//EN" "http://www.w3.org/Graphics/SVG/1.1/DTD/svg11.dtd" >
<svg xmlns="http://www.w3.org/2000/svg" xmlns:xlink="http://www.w3.org/1999/xlink" version="1.1">
<metadata>
Created by FontForge 20170731 at Fri Mar 29 22:16:20 2013
 By Aleksey,,,
Copyright (c) 1995 ParaGraph Intl., (c) 1998 ParaType Inc., ParaType Ltd. All rights reserved.
</metadata>
<defs>
<font id="FuturaPT-BoldObl" horiz-adv-x="500" >
  <font-face 
    font-family="Futura PT Bold Italic"
    font-weight="400"
    font-style="italic"
    font-stretch="normal"
    units-per-em="1000"
    panose-1="2 11 9 2 2 2 4 9 2 3"
    ascent="763"
    descent="-237"
    x-height="447"
    cap-height="667"
    bbox="-353 -260 1254 951"
    underline-thickness="50"
    underline-position="-200"
    slope="-7"
    unicode-range="U+0020-FB02"
  />
<missing-glyph horiz-adv-x="233" 
 />
    <glyph glyph-name="afii10017.var.accented" unicode="&#x410;`" horiz-adv-x="695" 
d="M462 112h-238l-51 -112h-188l331 667h190l161 -667h-177zM353 393l-67 -149h144l-28 127q-11 53 -15 77q-3 17 -4 24q-11 -36 -30 -79zM405 898h165l-132 -171h-113z" />
    <glyph glyph-name="afii10022.var.accented" unicode="&#x415;`" horiz-adv-x="483" 
d="M124 667h365l-18 -147h-196l-14 -111h190l-18 -146h-190l-14 -116h204l-18 -147h-373zM299 898h165l-132 -171h-113z" />
    <glyph glyph-name="afii10026.var.accented" unicode="&#x418;`" horiz-adv-x="731" 
d="M124 667h169l-51 -412l309 412h164l-82 -667h-169l51 412l-311 -412h-162zM423 898h165l-132 -171h-113z" />
    <glyph glyph-name="afii10032.var.accented" unicode="&#x41e;`" horiz-adv-x="805" 
d="M429 680q158 0 257 -96q92 -91 92 -230q0 -163 -100 -266q-99 -101 -262 -101q-173 0 -274 103q-90 92 -90 234q0 149 95 247q106 109 282 109zM422 520q-87 0 -141 -54q-56 -56 -56 -136q0 -76 45 -126q51 -57 142 -57q90 0 140 53q52 54 52 138q0 79 -46 127
q-53 55 -136 55zM460 898h165l-132 -171h-113z" />
    <glyph glyph-name="afii10037.var.accented" unicode="&#x423;`" horiz-adv-x="642" 
d="M45 667h182l126 -299l147 299h195l-382 -667h-183l118 200zM379 898h165l-132 -171h-113z" />
    <glyph glyph-name="afii10045.var.accented" unicode="&#x42b;`" horiz-adv-x="861" 
d="M594 0l82 667h169l-82 -667h-169zM42 0l82 667h169l-32 -262h87q115 0 169 -54q48 -48 48 -125q0 -100 -58 -158q-68 -68 -234 -68h-231zM228 133h57q61 0 83 15q28 20 28 66q0 28 -14 42q-16 16 -77 16h-60zM488 898h165l-132 -171h-113z" />
    <glyph glyph-name="afii10047.var.accented" unicode="&#x42d;`" horiz-adv-x="625" 
d="M16 52l20 166q38 -34 77 -53q47 -22 107 -22q70 0 117 30q50 32 67 92h-253l18 142h246q-16 56 -65 87q-44 28 -111 28q-54 0 -102 -20q-36 -16 -72 -43l22 173q88 48 187 48q144 0 233 -87q91 -89 91 -237q0 -165 -103 -270q-96 -99 -256 -99q-122 0 -223 65zM310 898
h165l-132 -171h-113z" />
    <glyph glyph-name="afii10048.var.accented" unicode="&#x42e;`" horiz-adv-x="1095" 
d="M263 424h98q33 124 134 193q93 63 222 63q159 0 259 -96q92 -91 92 -230q0 -163 -100 -266q-99 -101 -260 -101q-68 0 -136.5 20t-116.5 61q-91 78 -104 209h-106l-34 -277h-169l82 667h169zM711 520q-84 0 -140 -54q-56 -56 -56 -136q0 -76 45 -126q51 -57 142 -57
q90 0 140 53q52 54 52 138q0 79 -46 127q-53 55 -137 55zM605 898h165l-132 -171h-113z" />
    <glyph glyph-name="afii10049.var.accented" unicode="&#x42f;`" horiz-adv-x="647" 
d="M14 0l218 255q-53 11 -86 49q-39 44 -39 117q0 105 69 174q43 43 92 57.5t111 14.5h252l-82 -667h-169l28 227h-17l-171 -227h-206zM424 361l22 172h-50q-55 0 -82 -25q-28 -26 -28 -73q0 -38 27 -59q22 -15 68 -15h43zM381 898h165l-132 -171h-113z" />
    <glyph glyph-name="afii10023.var.accented" unicode="&#x401;`" horiz-adv-x="483" 
d="M124 667h365l-18 -147h-196l-14 -111h190l-18 -146h-190l-14 -116h204l-18 -147h-373zM308 915l88 -42l-119 -152l-65 22zM160 887q28 0 46.5 -18.5t18.5 -45.5t-18.5 -46t-45.5 -19q-28 0 -47 19t-19 46t19 45.5t46 18.5zM465 887q26 0 45.5 -19t19.5 -45q0 -27 -19 -46
t-45 -19q-28 0 -47.5 19t-19.5 46t19.5 45.5t46.5 18.5z" />
    <glyph glyph-name="afii10065.var.accented" unicode="&#x430;`" horiz-adv-x="612" 
d="M414 447h165l-55 -447h-165l12 49q-38 -35 -72 -48.5t-80 -13.5q-85 0 -135.5 57t-50.5 154q0 113 67 187.5t168 74.5q47 0 78 -13.5t67 -50.5zM291 116q45 0 74.5 34.5t29.5 86.5q0 43 -24 68t-64 25q-45 0 -75.5 -34.5t-30.5 -85.5q0 -43 24.5 -68.5t65.5 -25.5z
M364 698h165l-132 -171h-113z" />
    <glyph glyph-name="afii10070.var.accented" unicode="&#x435;`" horiz-adv-x="561" 
d="M525 190h-334q0 -55 23 -76q17 -17 51 -17q25 0 42 12q16 11 22 30h180q-16 -48 -49 -81q-69 -71 -194 -71q-107 0 -171 59q-61 59 -61 158q0 114 73 185t191 71q107 0 169 -62q60 -60 60 -170q0 -14 -2 -38zM202 283h156q-2 33 -23 53q-20 18 -52 18q-35 0 -57 -22
q-18 -18 -24 -49zM338 698h165l-132 -171h-113z" />
    <glyph glyph-name="afii10074.var.accented" unicode="&#x438;`" horiz-adv-x="598" 
d="M87 447h165l-29 -230l197 230h144l-55 -447h-165l29 236l-195 -236h-146zM357 698h165l-132 -171h-113z" />
    <glyph glyph-name="afii10080.var.accented" unicode="&#x43e;`" horiz-adv-x="603" 
d="M308 460q127 0 197 -70q62 -60 62 -159q0 -101 -65 -168q-74 -76 -199 -76q-130 0 -205 75q-63 63 -63 160t67 162q78 76 206 76zM294 116q43 0 71 29q34 34 34 92q0 47 -27 71q-25 22 -62 22q-43 0 -73 -31q-34 -36 -34 -89q0 -41 25 -68q26 -26 66 -26zM359 698h165
l-132 -171h-113z" />
    <glyph glyph-name="afii10085.var.accented" unicode="&#x443;`" horiz-adv-x="588" 
d="M427 447h188l-418 -676h-185l160 264l-158 412h183l48 -121q23 -57 37 -128q23 50 59 108zM358 698h165l-132 -171h-113z" />
    <glyph glyph-name="afii10093.var.accented" unicode="&#x44b;`" horiz-adv-x="766" 
d="M567 447h165l-55 -447h-165zM234 298h84q93 0 134 -40q38 -36 38 -96q0 -70 -43 -113q-49 -49 -136 -49h-279l54 447h166zM210 104h49q36 0 52 14q15 13 15 38q0 21 -15 30q-11 8 -55 8h-35zM441 698h165l-132 -171h-113z" />
    <glyph glyph-name="afii10095.var.accented" unicode="&#x44d;`" horiz-adv-x="493" 
d="M25 28l17 137q28 -26 58 -39q33 -15 78 -15q49 0 76 17q26 16 38 47h-171l12 100h165q-14 34 -47 50q-27 13 -67 13q-41 0 -76 -16q-26 -11 -50 -31l17 143q75 26 140 26q116 0 181 -65q61 -61 61 -155q0 -116 -72 -186q-69 -67 -193 -67q-86 0 -167 41zM254 698h165
l-132 -171h-113z" />
    <glyph glyph-name="afii10096.var.accented" unicode="&#x44e;`" horiz-adv-x="827" 
d="M233 296h50q22 71 81 116q64 48 168 48q127 0 197 -70q62 -60 62 -159q0 -101 -65 -168q-74 -76 -199 -76q-109 0 -175 50q-67 50 -78 132h-56l-21 -169h-165l55 447h165zM518 116q43 0 71 29q34 34 34 92q0 47 -27 71q-25 22 -62 22q-43 0 -73 -31q-34 -36 -34 -89
q0 -41 25 -68q26 -26 66 -26zM471 698h165l-132 -171h-113z" />
    <glyph glyph-name="afii10097.var.accented" unicode="&#x44f;`" horiz-adv-x="544" 
d="M10 0l143 160q-38 8 -62 32q-31 31 -31 85q0 76 47 121q50 49 175 49h228l-55 -447h-158l17 142h-11l-113 -142h-180zM326 240l13 103h-50q-36 0 -54 -18q-15 -15 -15 -38q0 -25 17 -36t49 -11h40zM330 698h165l-132 -171h-113z" />
    <glyph glyph-name="afii10071.var.accented" unicode="&#x451;`" horiz-adv-x="561" 
d="M525 190h-334q-3 -52 23 -76q17 -17 51 -17q25 0 42 12q16 11 22 30h180q-16 -48 -49 -81q-69 -71 -194 -71q-107 0 -171 59q-61 59 -61 158q0 114 73 185t191 71q107 0 169 -62q73 -74 58 -208zM202 283h156q-2 33 -23 53q-20 18 -52 18q-35 0 -57 -22q-18 -18 -24 -49z
M293 703l92 -31l-109 -145l-73 20zM66 615q0 29 21.5 50.5t50.5 21.5t50.5 -21.5t21.5 -50.5t-21.5 -50.5t-50.5 -21.5t-50.5 21.5t-21.5 50.5zM383 615q0 29 21.5 50.5t50.5 21.5t50.5 -21.5t21.5 -50.5t-21.5 -50.5t-50.5 -21.5t-50.5 21.5t-21.5 50.5z" />
    <glyph glyph-name="fi" unicode="fi" horiz-adv-x="581" 
d="M343 320h-101l-40 -320h-165l40 320h-56l15 127h56l7 55q14 109 71 168q68 70 197 70q114 0 171 -56q47 -46 47 -130q0 -26 -4 -47h-165q3 21 3 29q0 31 -19 48q-20 18 -51 18q-35 0 -57 -23q-20 -20 -27 -69l-8 -63h102zM409 447h163l-55 -447h-163z" />
    <glyph glyph-name="fl" unicode="fl" horiz-adv-x="582" 
d="M343 320h-101l-40 -320h-165l40 320h-56l15 127h56l7 55q15 111 70 168q66 70 194 70q111 0 170 -56q51 -48 51 -135q0 -20 -9 -98l-56 -451h-165l60 480q5 38 5 55q0 31 -19 49q-20 18 -51 18q-35 0 -57 -23q-20 -20 -27 -69l-8 -63h102z" />
    <glyph glyph-name=".notdef" horiz-adv-x="233" 
 />
    <glyph glyph-name=".null" horiz-adv-x="0" 
 />
    <glyph glyph-name="nonmarkingreturn" horiz-adv-x="333" 
 />
    <glyph glyph-name="space" unicode=" " horiz-adv-x="233" 
 />
    <glyph glyph-name="exclam" unicode="!" horiz-adv-x="336" 
d="M154 188q43 0 71 -27.5t28 -70.5q0 -44 -29 -73.5t-72 -29.5q-44 0 -73 29t-29 73t29 71.5t75 27.5zM139 667h168l-55 -451h-169z" />
    <glyph glyph-name="quotedbl" unicode="&#x22;" horiz-adv-x="413" 
d="M237 667l-57 -268h-96l9 268h144zM425 667l-58 -268h-95l9 268h144z" />
    <glyph glyph-name="numbersign" unicode="#" horiz-adv-x="600" 
d="M484 299h101l-32 -117h-102l-51 -182h-134l52 182h-84l-52 -182h-132l52 182h-102l33 117h101l23 83h-100l32 116h101l48 169h131l-47 -169h84l48 169h133l-48 -169h100l-32 -116h-100zM350 299l24 83h-85l-23 -83h84z" />
    <glyph glyph-name="dollar" unicode="$" horiz-adv-x="600" 
d="M521 214q0 -86 -54 -144.5t-149 -74.5l-13 -107h-100l13 105q-77 10 -172 70l75 126q80 -53 138 -53q41 0 65.5 18t24.5 47q0 22 -15 37t-62 39q-59 30 -85 49.5t-43 45.5q-25 39 -25 96q0 77 48 130.5t135 72.5l12 104h100l-12 -101q47 -7 76 -18t76 -40l-73 -127
q-65 49 -117 49q-34 0 -53.5 -15.5t-19.5 -41.5q0 -25 17 -41t67 -38q81 -37 113.5 -79t32.5 -109z" />
    <glyph glyph-name="percent" unicode="%" horiz-adv-x="875" 
d="M646 667h88l-469 -667h-88zM649 -8q-79 0 -124 44q-45 45 -45 106q0 74 54 127q53 50 136 50q84 0 129 -45q41 -39 41 -102q0 -73 -49 -124q-55 -56 -142 -56zM667 231q-33 0 -55 -22q-24 -23 -24 -60q0 -30 19 -49t49 -19q31 0 53 22q23 23 23 60q0 31 -19 50
q-18 18 -46 18zM247 586q-33 0 -55 -22q-24 -22 -24 -60q0 -30 19 -49t49 -19q31 0 53 22q23 23 23 60q0 31 -19 50q-18 18 -46 18zM229 347q-79 0 -124 44q-45 45 -45 106q0 74 54 127q53 50 136 50q84 0 129 -45q41 -39 41 -102q0 -73 -49 -124q-55 -56 -142 -56z" />
    <glyph glyph-name="ampersand" unicode="&#x26;" horiz-adv-x="720" 
d="M670 200q-37 -33 -77 -61l99 -139h-181l-39 56q-44 -39 -94 -57q-49 -18 -112 -18q-102 0 -157 47q-63 53 -63 143q0 65 41 117q50 61 154 91q-31 41 -44 70t-13 62q0 64 43 109q56 60 161 60q99 0 154 -59q44 -47 44 -116q0 -62 -44 -105q-32 -30 -96 -58l75 -104
q45 33 82 75zM376 432q37 11 58 34q19 20 19 46q0 21 -14 35q-15 17 -47 17q-28 0 -46 -18q-14 -14 -14 -34q0 -22 16 -44q4 -5 5.5 -7.5t2.5 -3.5t6 -7.5t14 -17.5zM395 165l-82 114q-45 -17 -73 -45q-26 -24 -26 -56q0 -25 20 -42q20 -16 54 -16q56 0 107 45z" />
    <glyph glyph-name="quotesingle" unicode="'" horiz-adv-x="225" 
d="M237 667l-57 -268h-96l9 268h144z" />
    <glyph glyph-name="parenleft" unicode="(" horiz-adv-x="377" 
d="M268 -134l-124 -54q-76 186 -76 367q0 139 46.5 269.5t149.5 280.5l109 -65q-42 -61 -71 -123q-32 -66 -54 -139q-36 -118 -36 -231q0 -160 43 -271q1 -4 13 -34z" />
    <glyph glyph-name="parenright" unicode=")" horiz-adv-x="377" 
d="M123 676l125 53q47 -115 62 -211q13 -74 13 -147q0 -145 -46 -276.5t-150 -282.5l-109 66q161 235 161 502q0 160 -56 296z" />
    <glyph glyph-name="asterisk" unicode="*" horiz-adv-x="593" 
d="M202 661l98 -44l4 112h110l-24 -112l109 44l22 -103l-114 -26l64 -85l-96 -64l-47 95l-70 -95l-80 64l84 84l-107 26z" />
    <glyph glyph-name="plus" unicode="+" 
d="M47 280v120h152v153h130v-153h151v-120h-151v-153h-130v153h-152z" />
    <glyph glyph-name="comma" unicode="," horiz-adv-x="307" 
d="M121 167h153l-182 -316h-122z" />
    <glyph glyph-name="hyphen" unicode="-" horiz-adv-x="353" 
d="M45 202l16 133h253l-16 -133h-253z" />
    <glyph glyph-name="period" unicode="." horiz-adv-x="307" 
d="M134 190q44 0 74 -29t30 -71q0 -43 -29 -73t-71 -30t-72.5 30.5t-30.5 71.5q0 42 29 71.5t70 29.5z" />
    <glyph glyph-name="slash" unicode="/" horiz-adv-x="729" 
d="M-60 -188l628 917h131l-629 -917h-130z" />
    <glyph glyph-name="zero" unicode="0" horiz-adv-x="600" 
d="M339 682q115 0 186 -74.5t76 -202.5q1 -6 1 -18q0 -169 -84 -288q-82 -114 -223 -114q-125 0 -198 82t-73 223q0 173 88 282.5t227 109.5zM292 131q62 0 100.5 71.5t38.5 186.5q0 69 -23.5 107.5t-66.5 38.5q-62 0 -104.5 -70t-42.5 -173q0 -74 26 -117.5t72 -43.5z" />
    <glyph glyph-name="one" unicode="1" horiz-adv-x="600" 
d="M185 667h264l-83 -667h-168l64 520h-95z" />
    <glyph glyph-name="two" unicode="2" horiz-adv-x="600" 
d="M323 147h206l-19 -147h-509q112 102 183 177q58 60 108 120q90 108 90 163q0 34 -21 54.5t-55 20.5q-43 0 -62.5 -25.5t-24.5 -84.5h-172q10 118 67 179q73 78 199 78q112 0 177 -58.5t65 -158.5q0 -91 -55 -158q-21 -26 -54 -58q-46 -44 -123 -102z" />
    <glyph glyph-name="three" unicode="3" horiz-adv-x="600" 
d="M285 -15q-127 0 -196 62.5t-70 179.5h174v-14q0 -41 24.5 -63.5t67.5 -22.5t68 22t25 60q0 35 -23.5 56t-63.5 21q-11 0 -21 -1l16 126q22 -3 30 -3q35 0 57 20t22 52q0 29 -19.5 47t-50.5 18q-34 0 -52 -19t-24 -62h-173q16 115 82 168q62 50 165 50q111 0 174.5 -51.5
t63.5 -142.5q0 -51 -20 -84t-67 -58q41 -22 59 -54.5t18 -83.5q0 -99 -74 -161t-192 -62z" />
    <glyph glyph-name="four" unicode="4" horiz-adv-x="600" 
d="M549 125h-67l-16 -125h-154l15 125h-316l9 135l327 407h201l-50 -408h67zM184 259h160l12 99q9 75 26 160q-32 -48 -60 -84z" />
    <glyph glyph-name="five" unicode="5" horiz-adv-x="600" 
d="M196 667h360l-18 -147h-234l-27 -82q26 3 52 3q106 0 164.5 -52.5t58.5 -147.5q0 -111 -84 -183.5t-214 -72.5q-93 0 -174 34q-14 6 -77 38l48 153q54 -46 120 -67q45 -12 78 -12q58 0 94 29t36 76q0 48 -37 73.5t-105 25.5q-69 0 -158 -32z" />
    <glyph glyph-name="six" unicode="6" horiz-adv-x="600" 
d="M539 667l-209 -234q28 4 45 4q92 0 149.5 -58t57.5 -151q0 -107 -79 -175t-203 -68q-117 0 -193 64.5t-76 162.5q0 44 15 81q28 73 115 170l179 204h199zM409 224v4q-2 41 -30 66.5t-72 25.5q-47 0 -78 -28.5t-31 -72.5q0 -42 30 -70t75 -28q46 0 76 29t30 74z" />
    <glyph glyph-name="seven" unicode="7" horiz-adv-x="600" 
d="M118 667h512l-369 -667h-185l204 367q42 78 92 153h-272z" />
    <glyph glyph-name="eight" unicode="8" horiz-adv-x="600" 
d="M560 506q0 -56 -28 -89t-96 -57q51 -19 76.5 -40t39.5 -56q14 -34 14 -75q0 -93 -71.5 -148.5t-190.5 -55.5q-123 0 -194.5 53t-71.5 145q0 88 63 137q29 22 89 40q-86 49 -86 138q0 80 67 132t169 52q103 0 161.5 -47t58.5 -129zM331 432q31 0 51.5 19.5t20.5 48.5
q0 30 -19 48t-50 18t-52.5 -20t-21.5 -49q0 -28 20 -46.5t51 -18.5zM393 205v5q-3 31 -27.5 49.5t-62.5 18.5q-40 0 -66 -21.5t-26 -54.5t26 -54.5t66 -21.5q39 0 64.5 22.5t25.5 56.5z" />
    <glyph glyph-name="nine" unicode="9" horiz-adv-x="600" 
d="M88 0l211 234q-29 -6 -39 -6q-92 0 -153.5 61t-61.5 153q0 106 80 173t205 67q118 0 192.5 -63t74.5 -164q0 -105 -103 -221l-207 -234h-199zM430 451v6q-3 39 -31 63.5t-70 24.5q-46 0 -78 -29.5t-32 -73.5q0 -41 29.5 -68t73.5 -27q47 0 77.5 29t30.5 75z" />
    <glyph glyph-name="colon" unicode=":" horiz-adv-x="307" 
d="M134 190q44 0 74 -29t30 -71q0 -43 -29 -73t-71 -30t-72.5 30t-30.5 72t29 71.5t70 29.5zM167 460q44 0 74 -29t30 -71q0 -43 -29 -73t-71 -30t-72 30t-30 72t28.5 71.5t69.5 29.5z" />
    <glyph glyph-name="semicolon" unicode=";" horiz-adv-x="307" 
d="M184 460q44 0 74 -29t30 -71q0 -43 -29 -73t-71 -30t-72.5 30.5t-30.5 71.5q0 42 29 71.5t70 29.5zM115 167h153l-182 -316h-121z" />
    <glyph glyph-name="less" unicode="&#x3c;" 
d="M33 389l433 220v-128l-296 -147l295 -148l1 -128l-433 222v109z" />
    <glyph glyph-name="equal" unicode="=" 
d="M47 370v113h433v-113h-433zM47 197v113h433v-113h-433z" />
    <glyph glyph-name="greater" unicode="&#x3e;" 
d="M493 279l-433 -221v129l296 147l-295 147l-1 128l433 -221v-109z" />
    <glyph glyph-name="question" unicode="?" horiz-adv-x="548" 
d="M244 188q43 0 71 -27.5t28 -70.5q0 -44 -29 -73.5t-72 -29.5q-44 0 -73 29t-29 73q0 43 29.5 71t74.5 28zM350 267l-5 -37h-155l20 161q25 -2 47 -2q57 0 90 23t33 63q0 31 -19.5 50t-51.5 19q-68 0 -75 -72h-157q8 64 24 98.5t50 61.5q60 48 154 48q105 0 167 -55
t62 -149q0 -85 -49.5 -141.5t-134.5 -67.5z" />
    <glyph glyph-name="at" unicode="@" horiz-adv-x="733" 
d="M493 454l12 37h88l-60 -189q-12 -38 -12 -52q0 -23 19 -23q18 0 39 21t38 55q26 54 26 108q0 85 -56.5 136t-151.5 51q-124 0 -214.5 -91t-90.5 -215q0 -74 35.5 -131t95.5 -77q47 -16 109 -16q91 0 184 30l10 -80q-96 -30 -206 -30q-145 0 -230 80.5t-85 216.5
q0 158 118.5 275.5t278.5 117.5q125 0 203.5 -71.5t78.5 -185.5q0 -69 -30 -132t-81 -103q-42 -32 -85 -32q-27 0 -47 15.5t-23 38.5q-52 -63 -133 -63q-53 0 -87.5 38t-34.5 96q0 44 20.5 89.5t56.5 79.5q57 54 123 54q31 0 56 -13t36 -35zM359 236q36 0 67 34.5t31 78.5
q0 28 -14.5 44t-39.5 16q-38 0 -69 -35.5t-31 -79.5q0 -26 15.5 -42t40.5 -16z" />
    <glyph glyph-name="A" unicode="A" horiz-adv-x="695" 
d="M462 112h-238l-51 -112h-188l331 667h190l161 -667h-177zM353 393l-67 -149h144l-28 127q-11 53 -15 77q-3 17 -4 24q-11 -36 -30 -79z" />
    <glyph glyph-name="B" unicode="B" horiz-adv-x="603" 
d="M42 0l82 667h213q64 0 99 -7.5t59 -26.5q53 -41 53 -121q0 -60 -30 -104q-26 -38 -79 -61q53 -13 79 -35q45 -39 45 -111q0 -61 -34.5 -111.5t-92.5 -72.5q-43 -17 -129 -17h-265zM307 534h-31l-16 -132h24q55 0 79.5 17.5t24.5 56.5q0 34 -17 46t-64 12zM295 277h-51
l-17 -144h46q62 0 88.5 19t26.5 62q0 37 -19 50t-74 13z" />
    <glyph glyph-name="C" unicode="C" horiz-adv-x="607" 
d="M414 680q103 0 202 -56l-20 -165q-73 61 -163 61q-92 0 -151 -54.5t-59 -139.5q0 -80 52 -129.5t135 -49.5q78 0 153 42l-21 -170q-90 -32 -157 -32q-148 0 -241.5 92.5t-93.5 238.5q0 152 105.5 257t258.5 105z" />
    <glyph glyph-name="D" unicode="D" horiz-adv-x="694" 
d="M42 0l82 667h189q178 0 267 -83q84 -78 84 -225q0 -180 -112 -273q-105 -86 -290 -86h-220zM321 520h-46l-46 -373h51q96 0 150 51q60 55 60 153q0 86 -48 131q-41 38 -121 38z" />
    <glyph glyph-name="E" unicode="E" horiz-adv-x="483" 
d="M124 667h365l-18 -147h-196l-14 -111h190l-18 -146h-190l-14 -116h204l-18 -147h-373z" />
    <glyph glyph-name="F" unicode="F" horiz-adv-x="474" 
d="M124 667h380l-18 -147h-211l-14 -113h192l-18 -146h-192l-32 -261h-169z" />
    <glyph glyph-name="G" unicode="G" horiz-adv-x="752" 
d="M389 237l16 134h321q-3 -108 -33 -185q-35 -93 -118.5 -146t-192.5 -53q-147 0 -239.5 91.5t-92.5 236.5q0 158 103.5 261.5t261.5 103.5q127 0 213 -72q32 -27 49 -51.5t37 -71.5l-147 -57q-49 109 -156 109q-80 0 -133.5 -62.5t-53.5 -156.5q0 -81 49 -133t126 -52
q55 0 94.5 28.5t50.5 75.5h-155z" />
    <glyph glyph-name="H" unicode="H" horiz-adv-x="724" 
d="M539 667h169l-82 -667h-169l33 273h-245l-34 -273h-169l82 667h169l-30 -247h245z" />
    <glyph glyph-name="I" unicode="I" horiz-adv-x="309" 
d="M124 667h169l-82 -667h-169z" />
    <glyph glyph-name="J" unicode="J" horiz-adv-x="481" 
d="M296 667h169l-57 -459q-7 -55 -20.5 -94.5t-47.5 -73.5q-53 -53 -146 -53q-81 0 -132 37q-42 30 -69 82l125 97q6 -28 21 -45q14 -17 42 -17q22 0 37 16q17 18 25 79z" />
    <glyph glyph-name="K" unicode="K" horiz-adv-x="672" 
d="M124 667h169l-36 -292l220 292h194l-255 -340l228 -327h-203l-143 213q-24 36 -50 88l-37 -301h-169z" />
    <glyph glyph-name="L" unicode="L" horiz-adv-x="472" 
d="M124 667h169l-64 -520h213l-19 -147h-381z" />
    <glyph glyph-name="M" unicode="M" horiz-adv-x="939" 
d="M675 667h175l21 -667h-169l-8 299v21q0 46 8 111q-21 -57 -47 -110l-164 -321h-89l-57 258q-17 75 -28 184q-18 -94 -35 -153l-86 -289h-174l211 667h167l50 -225q18 -76 30 -175q20 57 38 91z" />
    <glyph glyph-name="N" unicode="N" horiz-adv-x="798" 
d="M613 667h169l-82 -667h-185l-177 299q-40 66 -82 165v-30q0 -69 -7 -126l-38 -308h-169l82 667h182l190 -322l29 -54l26 -51l13 -25q2 63 8 114z" />
    <glyph glyph-name="O" unicode="O" horiz-adv-x="805" 
d="M429 680q152 0 247.5 -85.5t101.5 -227.5v-13q0 -164 -100 -265.5t-262 -101.5q-163 0 -263.5 93t-100.5 244q0 157 105.5 256.5t271.5 99.5zM605 336q0 8 -1 12q-4 79 -53.5 125.5t-128.5 46.5q-86 0 -141.5 -54t-55.5 -136t51.5 -132.5t135.5 -50.5q86 0 139.5 52.5
t53.5 136.5z" />
    <glyph glyph-name="P" unicode="P" horiz-adv-x="577" 
d="M42 0l82 667h223q134 0 194 -59q56 -55 56 -153q0 -100 -52 -157q-71 -77 -232 -77h-75l-27 -221h-169zM323 527h-47l-20 -166h53q66 0 94 28q21 21 21 59t-19 57q-21 22 -82 22z" />
    <glyph glyph-name="Q" unicode="Q" horiz-adv-x="805" 
d="M727 153q-21 -36 -59 -74l78 -103l-149 -30l-45 62q-64 -21 -138 -21q-161 0 -261.5 93.5t-100.5 243.5q0 157 105.5 256.5t271.5 99.5q156 0 252.5 -90.5t96.5 -237.5q0 -111 -51 -199zM500 302l63 -90q42 54 42 123q0 83 -50.5 134t-132.5 51q-86 0 -141.5 -54
t-55.5 -136t51.5 -132.5t135.5 -50.5q21 0 39 3l-98 127z" />
    <glyph glyph-name="R" unicode="R" horiz-adv-x="620" 
d="M523 312q-30 -33 -88 -53l156 -259h-196l-152 265l-32 -265h-169l82 667h217q130 0 185 -58q51 -54 51 -149q0 -91 -54 -148zM308 533h-32l-21 -171h30q118 0 118 93q0 44 -21 61t-74 17z" />
    <glyph glyph-name="S" unicode="S" horiz-adv-x="529" 
d="M335 680q100 0 194 -61l-74 -128q-65 49 -117 49q-35 0 -55 -15.5t-20 -42.5q0 -24 17 -40t68 -40q83 -39 115.5 -80t32.5 -107q0 -100 -71.5 -164t-183.5 -64q-60 0 -109 16t-116 57l76 128q80 -55 141 -55q40 0 64.5 18.5t24.5 49.5q0 22 -15.5 37.5t-62.5 38.5
q-89 45 -121.5 85.5t-32.5 107.5q0 91 69.5 150.5t175.5 59.5z" />
    <glyph glyph-name="T" unicode="T" horiz-adv-x="465" 
d="M496 520h-142l-65 -520h-168l64 520h-142l18 147h453z" />
    <glyph glyph-name="U" unicode="U" horiz-adv-x="717" 
d="M532 667h169l-47 -386q-12 -97 -28 -143t-48 -77q-77 -74 -228 -74q-130 0 -204 60.5t-74 167.5q0 26 8 92l44 360h168l-44 -360q-3 -30 -3 -56q0 -104 110 -104q65 0 95 33q26 29 36 107z" />
    <glyph glyph-name="V" unicode="V" horiz-adv-x="675" 
d="M539 667h190l-358 -667h-143l-174 667h180l76 -304q15 -60 21 -122q15 48 38 91z" />
    <glyph glyph-name="W" unicode="W" horiz-adv-x="1006" 
d="M877 667h183l-287 -667h-190l-45 266q-14 78 -15 173q-26 -87 -55 -159l-114 -280h-181l-119 667h170l42 -250q17 -98 24 -219q17 63 28 92l26 64l126 313h160l49 -287q9 -49 19 -182q20 69 33 99l20 50z" />
    <glyph glyph-name="X" unicode="X" horiz-adv-x="687" 
d="M724 667l-263 -326l206 -341h-194l-61 100q-32 54 -62 126q-30 -52 -65 -96l-104 -130h-210l291 351l-191 316h196l44 -78q32 -57 61 -123q46 71 67 97l81 104h204z" />
    <glyph glyph-name="Y" unicode="Y" horiz-adv-x="623" 
d="M676 667l-291 -375l-36 -292h-169l37 297l-170 370h187l46 -107q30 -71 36 -90l3.5 -10.5t3.5 -11.5q11 21 33 53l115 166h205z" />
    <glyph glyph-name="Z" unicode="Z" horiz-adv-x="631" 
d="M298 147h299l-18 -147h-577l362 520h-263l18 147h536z" />
    <glyph glyph-name="bracketleft" unicode="[" horiz-adv-x="382" 
d="M292 -188h-259l112 917h258l-11 -93h-120l-89 -731h120z" />
    <glyph glyph-name="backslash" unicode="\" horiz-adv-x="627" 
d="M76 729h127l400 -917h-127z" />
    <glyph glyph-name="bracketright" unicode="]" horiz-adv-x="382" 
d="M106 729h258l-113 -917h-259l12 93h120l90 731h-120z" />
    <glyph glyph-name="asciicircum" unicode="^" 
d="M263 563l-110 -233h-135l160 337h170l161 -337h-136z" />
    <glyph glyph-name="underscore" unicode="_" 
d="M-30 -178v132h500v-132h-500z" />
    <glyph glyph-name="grave" unicode="`" 
d="M232 527l-89 171h164l38 -171h-113z" />
    <glyph glyph-name="a" unicode="a" horiz-adv-x="612" 
d="M414 447h165l-55 -447h-165l12 49q-38 -35 -72 -48.5t-80 -13.5q-85 0 -135.5 57t-50.5 154q0 113 67 187.5t168 74.5q47 0 78 -13.5t67 -50.5zM291 116q45 0 74.5 34.5t29.5 86.5q0 43 -24 68t-64 25q-45 0 -75.5 -34.5t-30.5 -85.5q0 -43 24.5 -68.5t65.5 -25.5z" />
    <glyph glyph-name="b" unicode="b" horiz-adv-x="617" 
d="M122 729h165l-42 -338q73 69 153 69q82 0 133.5 -59.5t51.5 -154.5q0 -114 -64.5 -186.5t-165.5 -72.5q-51 0 -84 15.5t-70 57.5l-2 -60h-165zM310 116q46 0 75.5 34t29.5 87q0 43 -24 68t-64 25q-46 0 -76 -34.5t-30 -85.5q0 -43 24.5 -68.5t64.5 -25.5z" />
    <glyph glyph-name="c" unicode="c" horiz-adv-x="423" 
d="M282 460q72 0 135 -31l-17 -139q-44 40 -91 40q-46 0 -76 -33t-30 -84q0 -44 24.5 -70t67.5 -26q41 0 88 34l-17 -140q-72 -24 -118 -24q-94 0 -153.5 62t-59.5 160q0 109 70 180t177 71z" />
    <glyph glyph-name="d" unicode="d" horiz-adv-x="612" 
d="M448 729h165l-90 -729h-164l12 53q-40 -36 -75.5 -51t-81.5 -15q-82 0 -132 56t-50 147q0 115 65.5 192.5t161.5 77.5q47 0 80.5 -16t67.5 -55zM290 116q45 0 74.5 34.5t29.5 86.5q0 43 -24 68t-64 25q-46 0 -76 -34.5t-30 -85.5q0 -43 24.5 -68.5t65.5 -25.5z" />
    <glyph glyph-name="e" unicode="e" horiz-adv-x="561" 
d="M525 190h-334q0 -55 23 -76q17 -17 51 -17q25 0 42 12q16 11 22 30h180q-16 -48 -49 -81q-69 -71 -194 -71q-107 0 -171 59q-61 59 -61 158q0 114 73 185t191 71q107 0 169 -62q60 -60 60 -170q0 -14 -2 -38zM202 283h156q-2 33 -23 53q-20 18 -52 18q-35 0 -57 -22
q-18 -18 -24 -49z" />
    <glyph glyph-name="f" unicode="f" horiz-adv-x="359" 
d="M367 320h-112l-40 -320h-165l40 320h-69l15 127h70l13 107q10 91 60 139t132 48q51 0 105 -22l-18 -140q-27 22 -55 22t-43 -18t-20 -57l-10 -79h112z" />
    <glyph glyph-name="g" unicode="g" horiz-adv-x="608" 
d="M411 447h164l-49 -392q-11 -90 -27.5 -140t-47.5 -81q-64 -63 -199 -63q-118 0 -176 54q-28 25 -42.5 53t-22.5 72h157q5 -23 27 -37t57 -14q47 0 71 24.5t31 80.5l5 42q-36 -34 -64 -46.5t-67 -12.5q-91 0 -144 60t-53 162q0 110 63 180.5t162 70.5q48 0 83 -17.5
t69 -60.5zM289 117q44 0 70 32.5t26 86.5q0 44 -23.5 69t-63.5 25q-44 0 -71.5 -32t-27.5 -82q0 -45 24.5 -72t65.5 -27z" />
    <glyph glyph-name="h" unicode="h" horiz-adv-x="593" 
d="M122 729h165l-40 -322q76 53 147 53q70 0 107.5 -40.5t37.5 -117.5q0 -28 -6 -74l-28 -228h-165l22 179q7 53 7 73q0 71 -60 71q-40 0 -59.5 -25t-26.5 -86l-26 -212h-165z" />
    <glyph glyph-name="i" unicode="i" horiz-adv-x="271" 
d="M87 447h165l-55 -447h-165zM95 633q0 37 26.5 63.5t63.5 26.5t63.5 -26.5t26.5 -63.5t-26.5 -63.5t-63.5 -26.5t-63.5 26.5t-26.5 63.5z" />
    <glyph glyph-name="j" unicode="j" horiz-adv-x="276" 
d="M85 447h165l-84 -676h-164zM95 633q0 37 26.5 63.5t63.5 26.5t63.5 -26.5t26.5 -63.5t-26.5 -63.5t-63.5 -26.5t-63.5 26.5t-26.5 63.5z" />
    <glyph glyph-name="k" unicode="k" horiz-adv-x="605" 
d="M122 729h165l-55 -442l143 160h208l-195 -204l209 -243h-201l-66 75q-53 61 -107 135l-26 -210h-165z" />
    <glyph glyph-name="l" unicode="l" horiz-adv-x="285" 
d="M122 729h165l-90 -729h-165z" />
    <glyph glyph-name="m" unicode="m" horiz-adv-x="881" 
d="M87 447h165l-13 -60q36 40 70.5 56.5t79.5 16.5q50 0 79 -17t51 -60q70 77 166 77q67 0 106 -35t39 -95q0 -31 -8 -95l-30 -235h-164l27 218q4 34 4 47q0 27 -14.5 42.5t-40.5 15.5q-40 0 -58.5 -24.5t-26.5 -85.5l-26 -213h-165l29 233q3 24 3 38q0 24 -14.5 38
t-39.5 14q-70 0 -83 -110l-26 -213h-165z" />
    <glyph glyph-name="n" unicode="n" horiz-adv-x="593" 
d="M87 447h165l-14 -58q46 40 81 55.5t81 15.5q68 0 104.5 -35t36.5 -101q0 -34 -5 -73l-31 -251h-165l25 197q4 35 4 55q0 71 -60 71q-40 0 -59.5 -27t-27.5 -94l-25 -202h-165z" />
    <glyph glyph-name="o" unicode="o" horiz-adv-x="603" 
d="M308 460q118 0 188.5 -62.5t70.5 -166.5q0 -108 -73.5 -176t-190.5 -68q-120 0 -194 64.5t-74 170.5q0 104 76.5 171t196.5 67zM294 116q46 0 75.5 34t29.5 87q0 43 -24 68t-65 25q-46 0 -76.5 -34.5t-30.5 -85.5q0 -43 25 -68.5t66 -25.5z" />
    <glyph glyph-name="p" unicode="p" horiz-adv-x="615" 
d="M85 447h165l-13 -57q43 39 78 54.5t79 15.5q85 0 134.5 -58t49.5 -158q0 -116 -58.5 -186.5t-154.5 -70.5q-98 0 -161 89l-38 -305h-164zM305 116q46 0 75.5 34t29.5 87q0 43 -24 68t-64 25q-46 0 -76 -34.5t-30 -85.5q0 -43 24.5 -68.5t64.5 -25.5z" />
    <glyph glyph-name="q" unicode="q" horiz-adv-x="613" 
d="M415 447h165l-83 -676h-165l33 270q-37 -31 -66 -42.5t-70 -11.5q-88 0 -141 59.5t-53 157.5q0 115 62.5 185.5t164.5 70.5q47 0 81 -14t71 -49zM291 116q45 0 74 34t29 87q0 43 -23 68t-63 25q-45 0 -75 -34.5t-30 -85.5q0 -43 24 -68.5t64 -25.5z" />
    <glyph glyph-name="r" unicode="r" horiz-adv-x="407" 
d="M87 447h165l-13 -61q39 35 70.5 48t78.5 13q4 0 32 -2l-18 -152q-37 20 -75 20q-51 0 -74.5 -27.5t-32.5 -95.5l-23 -190h-165z" />
    <glyph glyph-name="s" unicode="s" horiz-adv-x="470" 
d="M273 462q78 0 166 -46l-39 -113q-62 38 -109 38q-57 0 -57 -27q0 -15 26 -22l54 -14q61 -16 90 -46.5t29 -78.5q0 -76 -56.5 -121t-151.5 -45q-56 0 -102 15.5t-104 52.5l61 108q48 -30 76.5 -41t62.5 -11q61 0 61 31q0 17 -25 24l-54 12q-63 15 -91.5 46t-28.5 84
q0 69 52.5 111.5t139.5 42.5z" />
    <glyph glyph-name="t" unicode="t" horiz-adv-x="333" 
d="M344 320h-88l-40 -320h-164l39 320h-70l15 127h71l17 147h165l-18 -147h88z" />
    <glyph glyph-name="u" unicode="u" horiz-adv-x="597" 
d="M399 447h164l-28 -236q-16 -128 -67 -170q-63 -54 -189 -54q-107 0 -165.5 45.5t-58.5 130.5q0 28 4 61l28 223h164l-26 -213q-5 -45 -5 -52q0 -58 67 -58q39 0 58 20.5t25 69.5z" />
    <glyph glyph-name="v" unicode="v" horiz-adv-x="583" 
d="M427 447h183l-302 -447h-112l-174 447h171l51 -136q11 -29 32 -111q34 68 65 116z" />
    <glyph glyph-name="w" unicode="w" horiz-adv-x="833" 
d="M683 447h177l-258 -447h-118l-44 160q-14 48 -20 100q-21 -55 -41 -92l-91 -168h-121l-145 447h167l45 -139q16 -52 25 -103q18 49 44 96l79 146h110l43 -135q17 -53 25 -97q18 47 36 78z" />
    <glyph glyph-name="x" unicode="x" horiz-adv-x="625" 
d="M630 447l-213 -215l179 -232h-204l-43 60q-27 38 -44 69q-37 -47 -64 -74l-52 -55h-210l230 236l-162 211h206l33 -52q23 -36 35 -63q19 29 31 43l17 20l46 52h215z" />
    <glyph glyph-name="y" unicode="y" horiz-adv-x="588" 
d="M427 447h188l-418 -676h-185l160 264l-158 412h183l48 -121q23 -57 37 -128q23 50 59 108z" />
    <glyph glyph-name="z" unicode="z" horiz-adv-x="559" 
d="M293 127h216l-21 -127h-496l276 320h-195l21 127h472z" />
    <glyph glyph-name="braceleft" unicode="{" horiz-adv-x="503" 
d="M321 395q-6 -51 -21 -76t-54 -50q26 -20 36 -39t10 -52q0 -14 -2 -36l-21 -157q-1 -8 -1 -20q0 -20 12 -28.5t45 -8.5l37 1l-14 -115q-53 -2 -66 -2q-81 0 -114.5 24t-33.5 86q0 21 2 34l23 177q2 16 2 28q0 48 -46 58l13 110q48 9 57 45l6 23l23 187q10 78 49 111.5
t121 33.5q28 0 77 -3l-14 -114q-66 0 -83.5 -8.5t-22.5 -48.5z" />
    <glyph glyph-name="bar" unicode="|" 
d="M188 -250v1000h130v-1000h-130z" />
    <glyph glyph-name="braceright" unicode="}" horiz-adv-x="503" 
d="M207 143q6 51 21 76t54 51q-27 19 -36.5 38t-9.5 53q0 15 2 35l20 159q2 16 2 21q0 24 -18 30t-76 6l14 114q17 1 28.5 1.5t14.5 1t11 0.5h23q73 0 105 -25.5t32 -84.5q0 -22 -2 -35l-23 -178q-2 -16 -2 -28q0 -49 46 -58l-13 -110q-48 -11 -57 -46l-8 -30l-20 -178
q-9 -83 -45 -113.5t-124 -30.5l-77 2l14 115q10 -1 21 -1q49 0 65 10.5t20 46.5z" />
    <glyph glyph-name="asciitilde" unicode="~" 
d="M158 256q-25 0 -39.5 -12t-33.5 -49l-71 47l7 17q28 69 60 95.5t84 26.5q34 0 104 -26q62 -23 86 -23q25 0 39.5 10.5t32.5 40.5l73 -43q-25 -54 -44.5 -78t-49.5 -40q-34 -16 -65 -16q-23 0 -102 28q-64 22 -81 22z" />
    <glyph glyph-name="uni00A0" unicode="&#xa0;" horiz-adv-x="233" 
 />
    <glyph glyph-name="exclamdown" unicode="&#xa1;" horiz-adv-x="336" 
d="M190 254q-43 0 -71 27.5t-28 70.5q0 44 29 74t72 30q44 0 73 -29.5t29 -73.5q0 -43 -29.5 -71t-74.5 -28zM205 -230h-168l54 440h168z" />
    <glyph glyph-name="cent" unicode="&#xa2;" horiz-adv-x="600" 
d="M448 125q-54 -21 -100 -24l-11 -91h-94l12 104q-64 21 -103.5 79t-39.5 132q0 98 56 166t152 84l9 85h94l-10 -84q47 -8 87 -28l-17 -141q-44 35 -92 35q-47 0 -78 -32t-31 -81q0 -40 25.5 -66t65.5 -26q45 0 92 29z" />
    <glyph glyph-name="sterling" unicode="&#xa3;" horiz-adv-x="600" 
d="M164 252h-125l12 96h72q-12 43 -12 79q0 103 67 174q74 78 198 78q105 0 163 -62q51 -54 51 -139q0 -30 -4 -50h-165q2 12 2 31q0 44 -17 63q-17 21 -48 21q-40 0 -62 -34q-20 -31 -20 -84q0 -41 14 -77h153l-12 -96h-125q0 -66 -17 -105l45 -14q10 -3 27.5 -9t27 -8.5
t19.5 -2.5q43 0 49 44h108q-8 -85 -53 -130q-41 -41 -112 -41q-41 0 -101 20l-35 12q-48 17 -83 17q-42 0 -53 -35h-115q11 60 45 100q39 47 100 57q12 31 12 58q0 21 -6 37z" />
    <glyph glyph-name="currency" unicode="&#xa4;" horiz-adv-x="667" 
d="M109 67l-70 70l103 103q-44 65 -44 138q0 72 44 137l-104 104l71 71l104 -104q67 44 140 44q70 0 137 -43l103 102l70 -70l-102 -102q45 -71 45 -140q0 -71 -43 -136l103 -103l-70 -71l-103 103q-67 -45 -142 -45q-70 0 -140 44zM488 377q0 57 -40 97t-96 40t-96 -40
t-40 -97q0 -56 40 -96t96 -40t96 40t40 96z" />
    <glyph glyph-name="yen" unicode="&#xa5;" horiz-adv-x="600" 
d="M226 329h-163l13 105h100l-112 233h197l76 -192l120 192h200l-176 -233h105l-13 -105h-171l-7 -9l-6 -53h177l-13 -104h-177l-20 -163h-164l20 163h-169l13 104h169l6 53z" />
    <glyph glyph-name="brokenbar" unicode="&#xa6;" 
d="M188 339v411h130v-411h-130zM188 -250v411h130v-411h-130z" />
    <glyph glyph-name="section" unicode="&#xa7;" horiz-adv-x="574" 
d="M523 542h-136q0 47 -15 61q-13 13 -38 13q-30 0 -47 -17q-18 -17 -18 -43q0 -22 21 -41q14 -12 70 -38l37 -17q56 -25 84 -59q33 -42 33 -104q0 -58 -33.5 -103.5t-91.5 -70.5q32 -19 47 -50q14 -28 14 -64q0 -86 -49 -138q-57 -59 -154 -59q-87 0 -137 52
q-49 51 -49 144h136q0 -45 15 -62q16 -18 43 -18q28 0 46 18q17 17 17 48q0 32 -28 54q-11 9 -86 42q-69 31 -96 63q-36 42 -36 106q0 68 39 116q31 38 80 56q-58 42 -58 116q0 81 60 133q58 49 149 49q93 0 140 -47q43 -41 43 -110q0 -14 -2 -30zM364 279q0 28 -15 46
q-20 23 -52 23t-55 -23q-23 -25 -23 -55q0 -28 18 -48q19 -19 49 -19q32 0 53 19q25 22 25 57z" />
    <glyph glyph-name="dieresis" unicode="&#xa8;" 
d="M398 687q32 0 56 -24t24 -56q0 -34 -23 -57t-56 -23q-34 0 -58 23.5t-24 57.5q0 32 24 55.5t57 23.5zM196 687q34 0 57 -23.5t23 -56.5q0 -34 -23 -57t-56 -23q-35 0 -58 23.5t-23 57.5q0 33 23 56t57 23z" />
    <glyph glyph-name="copyright" unicode="&#xa9;" horiz-adv-x="760" 
d="M46 334q0 144 102 246t247 102q142 0 243.5 -102.5t101.5 -246.5t-101.5 -246t-244.5 -102q-144 0 -246 102t-102 247zM670 333q0 118 -81 202t-195 84q-116 0 -197 -83.5t-81 -201.5t81.5 -202.5t196.5 -84.5q114 0 195 84t81 202zM510 521l4 -1v-143l-11 14
q-37 40 -87 40q-44 0 -71.5 -28t-27.5 -72q0 -43 27.5 -70t71.5 -27q48 0 87 38l11 11v-139l-4 -2l-12 -3q-48 -16 -86 -16q-92 0 -156.5 60.5t-64.5 147.5q0 88 64 149.5t156 61.5q44 0 99 -21z" />
    <glyph glyph-name="ordfeminine" unicode="&#xaa;" horiz-adv-x="346" 
d="M286 632l3 26h94l-33 -265h-94l4 30q-31 -38 -82 -38q-56 0 -90 37q-33 36 -33 90q0 66 48 112q46 43 108 43q49 0 75 -35zM32 267l9 76h303l-9 -76h-303zM220 586q-27 0 -46 -18q-20 -20 -20 -47q0 -22 14 -38q16 -18 43 -18q25 0 44 17q21 19 21 49q0 24 -16 40
q-15 15 -40 15z" />
    <glyph glyph-name="guillemotleft" unicode="&#xab;" horiz-adv-x="544" 
d="M297 379l-127 -160l90 -152l-97 -57l-125 218l179 217zM507 379l-127 -160l90 -152l-97 -57l-125 210l179 225z" />
    <glyph glyph-name="logicalnot" unicode="&#xac;" 
d="M455 0h-130v150h-303v117h433v-267z" />
    <glyph glyph-name="uni00AD" unicode="&#xad;" horiz-adv-x="353" 
d="M45 202l16 133h253l-16 -133h-253z" />
    <glyph glyph-name="registered" unicode="&#xae;" horiz-adv-x="771" 
d="M46 334q0 144 103.5 246t249.5 102t249 -101.5t103 -246.5q-2 -144 -104.5 -246.5t-247.5 -102.5t-249 103t-104 246zM681 334q0 120 -81.5 202.5t-200.5 82.5q-118 0 -200.5 -83t-82.5 -202t82.5 -203t200.5 -84q117 0 199.5 84t82.5 203zM465 304l-4 -2l119 -152h-149
l-73 112v-112h-117v379h158q61 0 97.5 -33.5t36.5 -88.5q0 -36 -18.5 -64.5t-49.5 -38.5zM358 441v-77h7q53 0 53 39q0 38 -53 38h-7z" />
    <glyph glyph-name="macron" unicode="&#xaf;" 
d="M83 539l12 98h396l-12 -98h-396z" />
    <glyph glyph-name="degree" unicode="&#xb0;" horiz-adv-x="499" 
d="M286 363q-66 0 -111 45t-45 108q0 62 45 106q46 45 108 45q64 0 110 -44q45 -43 45 -107q0 -63 -45 -108t-107 -45zM212 515q0 -30 20.5 -50t51.5 -20t51.5 20t20.5 50t-20.5 50t-51.5 20t-51.5 -20t-20.5 -50z" />
    <glyph glyph-name="plusminus" unicode="&#xb1;" 
d="M38 357v120h151v153h130v-153h152v-120h-152v-154h-130v154h-151zM38 50v120h433v-120h-433z" />
    <glyph glyph-name="twosuperior" unicode="&#xb2;" horiz-adv-x="411" 
d="M258 365h122l-12 -93h-313q41 38 76 74q29 29 89 94q64 72 64 106q0 20 -11 32q-10 12 -28 12q-24 0 -37 -20q-9 -16 -13 -39h-107q10 66 51 108q40 41 109 41q68 0 109 -37q39 -37 39 -89q0 -47 -30 -91q-34 -51 -108 -98z" />
    <glyph glyph-name="threesuperior" unicode="&#xb3;" horiz-adv-x="402" 
d="M193 553h-104q10 59 48 94q36 33 106 33t107 -31t37 -83q0 -32 -16 -55q-16 -22 -43 -32q20 -10 33 -26q19 -23 19 -55q0 -57 -39 -94q-43 -40 -122 -40q-80 0 -121 41q-39 39 -43 100h108q0 -25 14 -39t37 -14q22 0 35 13q15 15 15 38q0 21 -15 32q-13 10 -39 10h-5
l10 73h8q27 0 39 10q13 10 13 27q0 21 -10 30q-9 9 -27 9q-19 0 -28 -9q-13 -12 -17 -32z" />
    <glyph glyph-name="acute" unicode="&#xb4;" 
d="M308 698h165l-132 -171h-113z" />
    <glyph glyph-name="mu" unicode="&#xb5;" horiz-adv-x="593" 
d="M162 -230h-160l83 677h160l-26 -204q-3 -24 -3 -42q0 -45 21 -66q17 -17 44 -17q30 0 51 19q33 30 43 114l24 196h160l-55 -447h-160l7 56q-13 -25 -33 -44q-23 -20 -52 -20t-47 18q-15 14 -23 41z" />
    <glyph glyph-name="mu" unicode="&#x3bc;" horiz-adv-x="593" 
d="M162 -230h-160l83 677h160l-26 -204q-3 -24 -3 -42q0 -45 21 -66q17 -17 44 -17q30 0 51 19q33 30 43 114l24 196h160l-55 -447h-160l7 56q-13 -25 -33 -44q-23 -20 -52 -20t-47 18q-15 14 -23 41z" />
    <glyph glyph-name="paragraph" unicode="&#xb6;" horiz-adv-x="669" 
d="M290 -95h-114l51 413q-83 0 -130 47q-39 39 -39 105q0 80 51 133q61 64 204 64h336l-13 -106h-72l-81 -656h-114l81 656h-79z" />
    <glyph glyph-name="periodcentered" unicode="&#xb7;" horiz-adv-x="232" 
d="M128 457q49 0 83.5 -33.5t34.5 -81.5q0 -50 -33 -84.5t-82 -34.5q-47 0 -82 35t-35 83t33.5 82t80.5 34z" />
    <glyph glyph-name="cedilla" unicode="&#xb8;" 
d="M210 -46l106 -44l-136 -146l-84 40z" />
    <glyph glyph-name="onesuperior" unicode="&#xb9;" horiz-adv-x="263" 
d="M95 667h153l-50 -407h-100l39 323h-52z" />
    <glyph glyph-name="ordmasculine" unicode="&#xba;" horiz-adv-x="339" 
d="M212 667q74 0 117 -45q35 -38 35 -91q0 -63 -41 -102q-47 -45 -122 -45t-119 48q-34 37 -34 92t39 96q47 47 125 47zM36 343h303l-8 -76h-303zM202 465q25 0 44 17q19 19 19 45q0 29 -15 44t-40 15q-26 0 -44 -18q-19 -19 -19 -46q0 -23 15 -40q16 -17 40 -17z" />
    <glyph glyph-name="guillemotright" unicode="&#xbb;" horiz-adv-x="544" 
d="M43 78l133 154l-92 156l96 57l125 -217l-179 -218zM248 78l133 154l-92 156l96 57l125 -217l-179 -218z" />
    <glyph glyph-name="onequarter" unicode="&#xbc;" horiz-adv-x="750" 
d="M108 667h153l-50 -407h-100l39 323h-52zM551 667h90l-471 -667h-90zM485 153h84l19 154zM693 400l-30 -247h47l-10 -77h-47l-9 -76h-94l9 76h-186l8 63l181 261h131z" />
    <glyph glyph-name="onehalf" unicode="&#xbd;" horiz-adv-x="782" 
d="M108 667h153l-50 -407h-100l39 323h-52zM609 93h122l-12 -93h-313q41 38 76 74q29 29 89 94q64 72 64 106q0 20 -11 32q-10 12 -28 12q-24 0 -37 -20q-9 -16 -13 -39h-107q9 67 51 108q40 41 109 41q68 0 109 -37q39 -37 39 -89q0 -47 -30 -91q-34 -51 -108 -98zM551 667
h90l-471 -667h-90z" />
    <glyph glyph-name="threequarters" unicode="&#xbe;" horiz-adv-x="840" 
d="M668 667h90l-471 -667h-90zM575 153h84l19 154zM783 400l-30 -247h47l-10 -77h-47l-9 -76h-94l9 76h-186l8 63l181 261h131zM198 553h-104q10 59 48 94q36 33 106 33t107 -31t37 -83q0 -32 -16 -55q-16 -22 -43 -32q20 -10 33 -26q19 -23 19 -55q0 -57 -39 -94
q-43 -40 -122 -40q-80 0 -121 41q-39 39 -43 100h108q0 -25 14 -39t37 -14q22 0 35 13q15 15 15 38q0 21 -15 32q-13 10 -39 10h-5l10 73h8q27 0 39 10q13 10 13 27q0 21 -10 30q-9 9 -27 9q-19 0 -28 -9q-13 -12 -17 -32z" />
    <glyph glyph-name="questiondown" unicode="&#xbf;" horiz-adv-x="548" 
d="M311 254q-43 0 -71 27.5t-28 70.5q0 45 28.5 74.5t72.5 29.5t73 -29.5t29 -73.5t-29 -71.5t-75 -27.5zM205 166l6 47h155l-21 -171q-25 2 -47 2q-56 0 -89.5 -22.5t-33.5 -58.5q0 -31 19.5 -50t51.5 -19q68 0 75 72h158q-9 -63 -25 -98t-50 -62q-62 -48 -154 -48
q-104 0 -166.5 55.5t-62.5 148.5q0 81 50 137t134 67z" />
    <glyph glyph-name="Agrave" unicode="&#xc0;" horiz-adv-x="695" 
d="M462 112h-238l-51 -112h-188l331 667h190l161 -667h-177zM353 393l-67 -149h144l-28 127q-11 53 -15 77q-3 17 -4 24q-11 -36 -30 -79zM357 727l-89 171h164l38 -171h-113z" />
    <glyph glyph-name="Aacute" unicode="&#xc1;" horiz-adv-x="695" 
d="M462 112h-238l-51 -112h-188l331 667h190l161 -667h-177zM353 393l-67 -149h144l-28 127q-11 53 -15 77q-3 17 -4 24q-11 -36 -30 -79zM428 898h165l-132 -171h-113z" />
    <glyph glyph-name="Acircumflex" unicode="&#xc2;" horiz-adv-x="695" 
d="M462 112h-238l-51 -112h-188l331 667h190l161 -667h-177zM353 393l-67 -149h144l-28 127q-11 53 -15 77q-3 17 -4 24q-11 -36 -30 -79zM435 777l-107 -66l-70 69l192 122l150 -119l-82 -72z" />
    <glyph glyph-name="Atilde" unicode="&#xc3;" horiz-adv-x="695" 
d="M462 112h-238l-51 -112h-188l331 667h190l161 -667h-177zM353 393l-67 -149h144l-28 127q-11 53 -15 77q-3 17 -4 24q-11 -36 -30 -79zM540 873l79 -46q-23 -44 -52 -69q-35 -31 -77 -31q-27 0 -66 15l-36 14q-41 15 -48 15q-33 0 -47 -42l-78 46q18 42 48 68
q35 30 85 30q33 0 68 -14l29 -12q46 -18 50 -18q29 0 45 44z" />
    <glyph glyph-name="Adieresis" unicode="&#xc4;" horiz-adv-x="695" 
d="M462 112h-238l-51 -112h-188l331 667h190l161 -667h-177zM353 393l-67 -149h144l-28 127q-11 53 -15 77q-3 17 -4 24q-11 -36 -30 -79zM518 887q32 0 56 -24t24 -56q0 -34 -23 -57t-56 -23q-34 0 -58 23.5t-24 57.5q0 32 24 55.5t57 23.5zM316 887q34 0 57 -23.5
t23 -56.5q0 -34 -23 -57t-56 -23q-35 0 -58 23.5t-23 57.5q0 33 23 56t57 23z" />
    <glyph glyph-name="Aring" unicode="&#xc5;" horiz-adv-x="695" 
d="M462 112h-238l-51 -112h-188l331 667h190l161 -667h-177zM353 393l-67 -149h144l-28 127q-11 53 -15 77q-3 17 -4 24q-11 -36 -30 -79zM412 727q-64 0 -99.5 26t-35.5 73q0 45 36 71.5t97 26.5q60 0 95 -26.5t35 -72.5q0 -45 -34.5 -71.5t-93.5 -26.5zM409 862
q-50 0 -50 -37q0 -17 13.5 -27t35.5 -10q51 0 51 37t-50 37z" />
    <glyph glyph-name="AE" unicode="&#xc6;" horiz-adv-x="923" 
d="M311 667h417l37 -147h-212l31 -113h203l37 -147h-201l30 -113h206l36 -147h-373l-28 120h-274l-56 -120h-179zM360 421l-78 -168h182l-44 178q-11 47 -18 93q-28 -72 -42 -103z" />
    <glyph glyph-name="Ccedilla" unicode="&#xc7;" horiz-adv-x="607" 
d="M414 680q103 0 202 -56l-20 -165q-73 61 -163 61q-92 0 -151 -54.5t-59 -139.5q0 -80 52 -129.5t135 -49.5q78 0 153 42l-21 -170q-90 -32 -157 -32q-148 0 -241.5 92.5t-93.5 238.5q0 152 105.5 257t258.5 105zM348 -46l112 -44l-136 -146l-92 40z" />
    <glyph glyph-name="Egrave" unicode="&#xc8;" horiz-adv-x="483" 
d="M124 667h365l-18 -147h-196l-14 -111h190l-18 -146h-190l-14 -116h204l-18 -147h-373zM267 727l-89 171h164l38 -171h-113z" />
    <glyph glyph-name="Eacute" unicode="&#xc9;" horiz-adv-x="483" 
d="M124 667h365l-18 -147h-196l-14 -111h190l-18 -146h-190l-14 -116h204l-18 -147h-373zM328 898h165l-132 -171h-113z" />
    <glyph glyph-name="Ecircumflex" unicode="&#xca;" horiz-adv-x="483" 
d="M124 667h365l-18 -147h-196l-14 -111h190l-18 -146h-190l-14 -116h204l-18 -147h-373zM340 777l-107 -66l-70 69l192 122l150 -119l-82 -72z" />
    <glyph glyph-name="Edieresis" unicode="&#xcb;" horiz-adv-x="483" 
d="M124 667h365l-18 -147h-196l-14 -111h190l-18 -146h-190l-14 -116h204l-18 -147h-373zM418 887q32 0 56 -24t24 -56q0 -34 -23 -57t-56 -23q-34 0 -58 23.5t-24 57.5q0 32 24 55.5t57 23.5zM216 887q34 0 57 -23.5t23 -56.5q0 -34 -23 -57t-56 -23q-35 0 -58 23.5
t-23 57.5q0 33 23 56t57 23z" />
    <glyph glyph-name="Igrave" unicode="&#xcc;" horiz-adv-x="309" 
d="M124 667h169l-82 -667h-169zM162 727l-89 171h164l38 -171h-113z" />
    <glyph glyph-name="Iacute" unicode="&#xcd;" horiz-adv-x="309" 
d="M124 667h169l-82 -667h-169zM228 898h165l-132 -171h-113z" />
    <glyph glyph-name="Icircumflex" unicode="&#xce;" horiz-adv-x="309" 
d="M124 667h169l-82 -667h-169zM245 777l-107 -66l-70 69l192 122l150 -119l-82 -72z" />
    <glyph glyph-name="Idieresis" unicode="&#xcf;" horiz-adv-x="309" 
d="M124 667h169l-82 -667h-169zM328 887q32 0 56 -24t24 -56q0 -34 -23 -57t-56 -23q-34 0 -58 23.5t-24 57.5q0 32 24 55.5t57 23.5zM126 887q34 0 57 -23.5t23 -56.5q0 -34 -23 -57t-56 -23q-35 0 -58 23.5t-23 57.5q0 33 23 56t57 23z" />
    <glyph glyph-name="Eth" unicode="&#xd0;" horiz-adv-x="736" 
d="M84 0l37 296h-91l15 120h90l31 251h206q83 0 134 -13t89 -42q50 -39 79 -101q32 -70 32 -153q0 -122 -59.5 -214t-157.5 -122q-71 -22 -185 -22h-220zM378 520h-61l-13 -104h118l-14 -120h-120l-17 -149h58q63 0 98.5 14.5t62.5 50.5q42 57 42 146q0 84 -37 123t-117 39z
" />
    <glyph glyph-name="Ntilde" unicode="&#xd1;" horiz-adv-x="798" 
d="M613 667h169l-82 -667h-185l-177 299q-40 66 -82 165v-30q0 -69 -7 -126l-38 -308h-169l82 667h182l190 -322l29 -54l26 -51l13 -25q2 63 8 114zM585 873l79 -46q-23 -44 -52 -69q-35 -31 -77 -31q-27 0 -66 15l-36 14q-41 15 -48 15q-33 0 -47 -42l-78 46q18 42 48 68
q35 30 85 30q33 0 68 -14l29 -12q46 -18 50 -18q28 0 45 44z" />
    <glyph glyph-name="Ograve" unicode="&#xd2;" horiz-adv-x="805" 
d="M429 680q152 0 247.5 -85.5t101.5 -227.5v-13q0 -164 -100 -265.5t-262 -101.5q-163 0 -263.5 93t-100.5 244q0 157 105.5 256.5t271.5 99.5zM605 336q0 8 -1 12q-4 79 -53.5 125.5t-128.5 46.5q-86 0 -141.5 -54t-55.5 -136t51.5 -132.5t135.5 -50.5q86 0 139.5 52.5
t53.5 136.5zM384 727l-89 171h164l38 -171h-113z" />
    <glyph glyph-name="Oacute" unicode="&#xd3;" horiz-adv-x="805" 
d="M429 680q152 0 247.5 -85.5t101.5 -227.5v-13q0 -164 -100 -265.5t-262 -101.5q-163 0 -263.5 93t-100.5 244q0 157 105.5 256.5t271.5 99.5zM605 336q0 8 -1 12q-4 79 -53.5 125.5t-128.5 46.5q-86 0 -141.5 -54t-55.5 -136t51.5 -132.5t135.5 -50.5q86 0 139.5 52.5
t53.5 136.5zM448 898h165l-132 -171h-113z" />
    <glyph glyph-name="Ocircumflex" unicode="&#xd4;" horiz-adv-x="805" 
d="M429 680q152 0 247.5 -85.5t101.5 -227.5v-13q0 -164 -100 -265.5t-262 -101.5q-163 0 -263.5 93t-100.5 244q0 157 105.5 256.5t271.5 99.5zM605 336q0 8 -1 12q-4 79 -53.5 125.5t-128.5 46.5q-86 0 -141.5 -54t-55.5 -136t51.5 -132.5t135.5 -50.5q86 0 139.5 52.5
t53.5 136.5zM460 777l-107 -66l-70 69l192 122l150 -119l-82 -72z" />
    <glyph glyph-name="Otilde" unicode="&#xd5;" horiz-adv-x="805" 
d="M429 680q152 0 247.5 -85.5t101.5 -227.5v-13q0 -164 -100 -265.5t-262 -101.5q-163 0 -263.5 93t-100.5 244q0 157 105.5 256.5t271.5 99.5zM605 336q0 8 -1 12q-4 79 -53.5 125.5t-128.5 46.5q-86 0 -141.5 -54t-55.5 -136t51.5 -132.5t135.5 -50.5q86 0 139.5 52.5
t53.5 136.5zM550 873l79 -46q-23 -44 -52 -69q-35 -31 -77 -31q-27 0 -66 15l-36 14q-41 15 -48 15q-33 0 -47 -42l-78 46q18 42 48 68q35 30 85 30q33 0 68 -14l29 -12q46 -18 50 -18q29 0 45 44z" />
    <glyph glyph-name="Odieresis" unicode="&#xd6;" horiz-adv-x="805" 
d="M429 680q152 0 247.5 -85.5t101.5 -227.5v-13q0 -164 -100 -265.5t-262 -101.5q-163 0 -263.5 93t-100.5 244q0 157 105.5 256.5t271.5 99.5zM605 336q0 8 -1 12q-4 79 -53.5 125.5t-128.5 46.5q-86 0 -141.5 -54t-55.5 -136t51.5 -132.5t135.5 -50.5q86 0 139.5 52.5
t53.5 136.5zM528 887q32 0 56 -24t24 -56q0 -34 -23 -57t-56 -23q-34 0 -58 23.5t-24 57.5q0 32 24 55.5t57 23.5zM326 887q34 0 57 -23.5t23 -56.5q0 -34 -23 -57t-56 -23q-35 0 -58 23.5t-23 57.5q0 33 23 56t57 23z" />
    <glyph glyph-name="multiply" unicode="&#xd7;" 
d="M133 126l-84 85l122 122l-123 123l92 92l123 -123l122 123l85 -85l-122 -123l123 -123l-92 -92l-123 123z" />
    <glyph glyph-name="Oslash" unicode="&#xd8;" horiz-adv-x="855" 
d="M19 39l111 99q-52 80 -52 186q0 148 95 247q104 109 282 109q121 0 215 -62l111 98l81 -88l-108 -96q50 -79 50 -179q0 -165 -100 -265q-99 -101 -260 -101q-129 0 -230 65l-114 -101zM265 257l272 242q-41 21 -89 21q-87 0 -141 -54q-56 -55 -56 -139q0 -41 14 -70z
M618 411l-274 -243q48 -21 94 -21q89 0 140 53q52 54 52 138q0 36 -12 73z" />
    <glyph glyph-name="Ugrave" unicode="&#xd9;" horiz-adv-x="717" 
d="M532 667h169l-47 -386q-12 -97 -28 -143t-48 -77q-77 -74 -228 -74q-130 0 -204 60.5t-74 167.5q0 26 8 92l44 360h168l-44 -360q-3 -30 -3 -56q0 -104 110 -104q65 0 95 33q26 29 36 107zM362 727l-89 171h164l38 -171h-113z" />
    <glyph glyph-name="Uacute" unicode="&#xda;" horiz-adv-x="717" 
d="M532 667h169l-47 -386q-12 -97 -28 -143t-48 -77q-77 -74 -228 -74q-130 0 -204 60.5t-74 167.5q0 26 8 92l44 360h168l-44 -360q-3 -30 -3 -56q0 -104 110 -104q65 0 95 33q26 29 36 107zM428 898h165l-132 -171h-113z" />
    <glyph glyph-name="Ucircumflex" unicode="&#xdb;" horiz-adv-x="717" 
d="M532 667h169l-47 -386q-12 -97 -28 -143t-48 -77q-77 -74 -228 -74q-130 0 -204 60.5t-74 167.5q0 26 8 92l44 360h168l-44 -360q-3 -30 -3 -56q0 -104 110 -104q65 0 95 33q26 29 36 107zM440 777l-107 -66l-70 69l192 122l150 -119l-82 -72z" />
    <glyph glyph-name="Udieresis" unicode="&#xdc;" horiz-adv-x="717" 
d="M532 667h169l-47 -386q-12 -97 -28 -143t-48 -77q-77 -74 -228 -74q-130 0 -204 60.5t-74 167.5q0 26 8 92l44 360h168l-44 -360q-3 -30 -3 -56q0 -104 110 -104q65 0 95 33q26 29 36 107zM518 887q32 0 56 -24t24 -56q0 -34 -23 -57t-56 -23q-34 0 -58 23.5t-24 57.5
q0 32 24 55.5t57 23.5zM316 887q34 0 57 -23.5t23 -56.5q0 -34 -23 -57t-56 -23q-35 0 -58 23.5t-23 57.5q0 33 23 56t57 23z" />
    <glyph glyph-name="Yacute" unicode="&#xdd;" horiz-adv-x="623" 
d="M676 667l-291 -375l-36 -292h-169l37 297l-170 370h187l46 -107q30 -71 36 -90l3.5 -10.5t3.5 -11.5q11 21 33 53l115 166h205zM378 898h165l-132 -171h-113z" />
    <glyph glyph-name="Thorn" unicode="&#xde;" horiz-adv-x="668" 
d="M42 0l82 667h169l-13 -99h56q70 0 106 -7.5t65 -27.5q36 -25 56.5 -71t20.5 -102q0 -112 -64 -178q-35 -36 -82 -50t-131 -14h-82l-14 -118h-169zM310 434h-47l-20 -169h53q115 0 115 91q0 41 -24 59.5t-77 18.5z" />
    <glyph glyph-name="germandbls" unicode="&#xdf;" horiz-adv-x="608" 
d="M197 0h-165l61 491q10 79 24 118.5t44 69.5q62 62 168 62q105 0 168 -53.5t63 -143.5q0 -66 -38 -113q-27 -34 -80 -52q51 -20 73 -40q53 -48 53 -134q0 -70 -37 -122.5t-98 -70.5q-43 -12 -146 -12h-43l18 142q18 -2 36 -2q49 0 75.5 22.5t26.5 64.5q0 81 -86 81
q-14 0 -32 -1l18 148l24 -2q36 0 58.5 21.5t22.5 56.5q0 33 -19 52.5t-51 19.5q-34 0 -51.5 -20t-22.5 -66z" />
    <glyph glyph-name="agrave" unicode="&#xe0;" horiz-adv-x="612" 
d="M414 447h165l-55 -447h-165l12 49q-38 -35 -72 -48.5t-80 -13.5q-85 0 -135.5 57t-50.5 154q0 113 67 187.5t168 74.5q47 0 78 -13.5t67 -50.5zM291 116q45 0 74.5 34.5t29.5 86.5q0 43 -24 68t-64 25q-45 0 -75.5 -34.5t-30.5 -85.5q0 -43 24.5 -68.5t65.5 -25.5z
M287 527l-89 171h164l38 -171h-113z" />
    <glyph glyph-name="aacute" unicode="&#xe1;" horiz-adv-x="612" 
d="M414 447h165l-55 -447h-165l12 49q-38 -35 -72 -48.5t-80 -13.5q-85 0 -135.5 57t-50.5 154q0 113 67 187.5t168 74.5q47 0 78 -13.5t67 -50.5zM291 116q45 0 74.5 34.5t29.5 86.5q0 43 -24 68t-64 25q-45 0 -75.5 -34.5t-30.5 -85.5q0 -43 24.5 -68.5t65.5 -25.5z
M343 698h165l-132 -171h-113z" />
    <glyph glyph-name="acircumflex" unicode="&#xe2;" horiz-adv-x="612" 
d="M414 447h165l-55 -447h-165l12 49q-38 -35 -72 -48.5t-80 -13.5q-85 0 -135.5 57t-50.5 154q0 113 67 187.5t168 74.5q47 0 78 -13.5t67 -50.5zM291 116q45 0 74.5 34.5t29.5 86.5q0 43 -24 68t-64 25q-45 0 -75.5 -34.5t-30.5 -85.5q0 -43 24.5 -68.5t65.5 -25.5z
M356 574l-109 -75l-62 74l192 128l129 -133l-77 -69z" />
    <glyph glyph-name="atilde" unicode="&#xe3;" horiz-adv-x="612" 
d="M414 447h165l-55 -447h-165l12 49q-38 -35 -72 -48.5t-80 -13.5q-85 0 -135.5 57t-50.5 154q0 113 67 187.5t168 74.5q47 0 78 -13.5t67 -50.5zM291 116q45 0 74.5 34.5t29.5 86.5q0 43 -24 68t-64 25q-45 0 -75.5 -34.5t-30.5 -85.5q0 -43 24.5 -68.5t65.5 -25.5z
M470 671l79 -46q-23 -44 -52 -69q-35 -31 -77 -31q-27 0 -66 15l-36 14q-41 15 -48 15q-33 0 -47 -42l-78 46q18 42 48 68q35 30 85 30q33 0 68 -14l29 -12q46 -18 50 -18q29 0 45 44z" />
    <glyph glyph-name="adieresis" unicode="&#xe4;" horiz-adv-x="612" 
d="M414 447h165l-55 -447h-165l12 49q-38 -35 -72 -48.5t-80 -13.5q-85 0 -135.5 57t-50.5 154q0 113 67 187.5t168 74.5q47 0 78 -13.5t67 -50.5zM291 116q45 0 74.5 34.5t29.5 86.5q0 43 -24 68t-64 25q-45 0 -75.5 -34.5t-30.5 -85.5q0 -43 24.5 -68.5t65.5 -25.5z
M454 687q32 0 56 -24t24 -56q0 -34 -23 -57t-56 -23q-34 0 -58 23.5t-24 57.5q0 32 24 55.5t57 23.5zM252 687q34 0 57 -23.5t23 -56.5q0 -34 -23 -57t-56 -23q-35 0 -58 23.5t-23 57.5q0 33 23 56t57 23z" />
    <glyph glyph-name="aring" unicode="&#xe5;" horiz-adv-x="612" 
d="M414 447h165l-55 -447h-165l12 49q-38 -35 -72 -48.5t-80 -13.5q-85 0 -135.5 57t-50.5 154q0 113 67 187.5t168 74.5q47 0 78 -13.5t67 -50.5zM291 116q45 0 74.5 34.5t29.5 86.5q0 43 -24 68t-64 25q-45 0 -75.5 -34.5t-30.5 -85.5q0 -43 24.5 -68.5t65.5 -25.5z
M342 527q-64 0 -99.5 26t-35.5 73q0 45 36 71.5t97 26.5q60 0 95 -26.5t35 -72.5q0 -45 -34.5 -71.5t-93.5 -26.5zM339 662q-50 0 -50 -37q0 -17 13.5 -27t35.5 -10q51 0 51 37t-50 37z" />
    <glyph glyph-name="ae" unicode="&#xe6;" horiz-adv-x="863" 
d="M827 197h-334v-5q0 -42 24 -66q23 -23 61 -23q56 0 76 40h159q-16 -71 -77 -113q-64 -43 -157 -43q-66 0 -108 16q-39 15 -64 45q-38 -32 -85 -46q-50 -15 -107 -15q-95 0 -145 46q-42 39 -42 96q0 60 37 97q50 50 147 50q75 0 131 -42q3 15 3 30q0 46 -23 68
q-22 21 -71 21q-61 0 -141 -33l8 117q95 23 161 23q51 0 93 -13q43 -14 71 -45q25 25 64 41q42 17 100 17q95 0 149 -49q70 -63 70 -199v-15zM246 176q-30 0 -50 -12t-20 -32t18 -32q22 -15 57 -15q31 0 51 14q18 13 18 32q0 20 -23 34q-20 11 -51 11zM508 290h169
q-2 32 -28 51q-20 15 -54 15q-38 0 -61 -19q-20 -17 -26 -47z" />
    <glyph glyph-name="ccedilla" unicode="&#xe7;" horiz-adv-x="423" 
d="M282 460q72 0 135 -31l-17 -139q-44 40 -91 40q-46 0 -76 -33t-30 -84q0 -44 24.5 -70t67.5 -26q41 0 88 34l-17 -140q-72 -24 -118 -24q-94 0 -153.5 62t-59.5 160q0 109 70 180t177 71zM222 -46l106 -44l-136 -146l-84 40z" />
    <glyph glyph-name="egrave" unicode="&#xe8;" horiz-adv-x="561" 
d="M525 190h-334q0 -55 23 -76q17 -17 51 -17q25 0 42 12q16 11 22 30h180q-16 -48 -49 -81q-69 -71 -194 -71q-107 0 -171 59q-61 59 -61 158q0 114 73 185t191 71q107 0 169 -62q60 -60 60 -170q0 -14 -2 -38zM202 283h156q-2 33 -23 53q-20 18 -52 18q-35 0 -57 -22
q-18 -18 -24 -49zM252 527l-89 171h164l38 -171h-113z" />
    <glyph glyph-name="eacute" unicode="&#xe9;" horiz-adv-x="561" 
d="M525 190h-334q0 -55 23 -76q17 -17 51 -17q25 0 42 12q16 11 22 30h180q-16 -48 -49 -81q-69 -71 -194 -71q-107 0 -171 59q-61 59 -61 158q0 114 73 185t191 71q107 0 169 -62q60 -60 60 -170q0 -14 -2 -38zM202 283h156q-2 33 -23 53q-20 18 -52 18q-35 0 -57 -22
q-18 -18 -24 -49zM318 698h165l-132 -171h-113z" />
    <glyph glyph-name="ecircumflex" unicode="&#xea;" horiz-adv-x="561" 
d="M525 190h-334q0 -55 23 -76q17 -17 51 -17q25 0 42 12q16 11 22 30h180q-16 -48 -49 -81q-69 -71 -194 -71q-107 0 -171 59q-61 59 -61 158q0 114 73 185t191 71q107 0 169 -62q60 -60 60 -170q0 -14 -2 -38zM202 283h156q-2 33 -23 53q-20 18 -52 18q-35 0 -57 -22
q-18 -18 -24 -49zM336 574l-109 -75l-62 74l192 128l129 -133l-77 -69z" />
    <glyph glyph-name="edieresis" unicode="&#xeb;" horiz-adv-x="561" 
d="M525 190h-334q0 -55 23 -76q17 -17 51 -17q25 0 42 12q16 11 22 30h180q-16 -48 -49 -81q-69 -71 -194 -71q-107 0 -171 59q-61 59 -61 158q0 114 73 185t191 71q107 0 169 -62q60 -60 60 -170q0 -14 -2 -38zM202 283h156q-2 33 -23 53q-20 18 -52 18q-35 0 -57 -22
q-18 -18 -24 -49zM418 687q32 0 56 -24t24 -56q0 -34 -23 -57t-56 -23q-34 0 -58 23.5t-24 57.5q0 32 24 55.5t57 23.5zM216 687q34 0 57 -23.5t23 -56.5q0 -34 -23 -57t-56 -23q-35 0 -58 23.5t-23 57.5q0 33 23 56t57 23z" />
    <glyph glyph-name="igrave" unicode="&#xec;" horiz-adv-x="285" 
d="M87 447h165l-55 -447h-165zM142 527l-89 171h164l38 -171h-113z" />
    <glyph glyph-name="iacute" unicode="&#xed;" horiz-adv-x="285" 
d="M87 447h165l-55 -447h-165zM178 698h165l-132 -171h-113z" />
    <glyph glyph-name="icircumflex" unicode="&#xee;" horiz-adv-x="285" 
d="M87 447h165l-55 -447h-165zM199 574l-109 -75l-62 74l192 128l129 -133l-77 -69z" />
    <glyph glyph-name="idieresis" unicode="&#xef;" horiz-adv-x="285" 
d="M87 447h165l-55 -447h-165zM291 687q32 0 56 -24t24 -56q0 -34 -23 -57t-56 -23q-34 0 -58 23.5t-24 57.5q0 32 24 55.5t57 23.5zM89 687q34 0 57 -23.5t23 -56.5q0 -34 -23 -57t-56 -23q-34 0 -57.5 23.5t-23.5 57.5q0 33 23 56t57 23z" />
    <glyph glyph-name="eth" unicode="&#xf0;" horiz-adv-x="626" 
d="M136 613l40 116q136 0 226 -53l170 74l32 -77l-126 -54q50 -40 78 -108q31 -74 31 -173q0 -187 -85 -275q-73 -76 -208 -76q-125 0 -195 70q-64 66 -64 158q0 100 68 170q76 76 201 76q82 0 141 -50q-7 99 -91 143l-213 -97l-30 77l155 67q-39 15 -86 15q-20 0 -44 -3z
M296 116q43 0 71 29q34 34 34 92q0 47 -27 71q-25 22 -62 22q-43 0 -73 -31q-34 -36 -34 -89q0 -41 25 -68q26 -26 66 -26z" />
    <glyph glyph-name="ntilde" unicode="&#xf1;" horiz-adv-x="593" 
d="M87 447h165l-14 -58q46 40 81 55.5t81 15.5q68 0 104.5 -35t36.5 -101q0 -34 -5 -73l-31 -251h-165l25 197q4 35 4 55q0 71 -60 71q-40 0 -59.5 -27t-27.5 -94l-25 -202h-165zM460 671l79 -46q-23 -44 -52 -69q-35 -31 -77 -31q-27 0 -66 15l-36 14q-41 15 -48 15
q-33 0 -47 -42l-78 46q18 42 48 68q35 30 85 30q33 0 68 -14l29 -12q46 -18 50 -18q28 0 45 44z" />
    <glyph glyph-name="ograve" unicode="&#xf2;" horiz-adv-x="603" 
d="M308 460q118 0 188.5 -62.5t70.5 -166.5q0 -108 -73.5 -176t-190.5 -68q-120 0 -194 64.5t-74 170.5q0 104 76.5 171t196.5 67zM294 116q46 0 75.5 34t29.5 87q0 43 -24 68t-65 25q-46 0 -76.5 -34.5t-30.5 -85.5q0 -43 25 -68.5t66 -25.5zM252 527l-89 171h164l38 -171
h-113z" />
    <glyph glyph-name="oacute" unicode="&#xf3;" horiz-adv-x="603" 
d="M308 460q118 0 188.5 -62.5t70.5 -166.5q0 -108 -73.5 -176t-190.5 -68q-120 0 -194 64.5t-74 170.5q0 104 76.5 171t196.5 67zM294 116q46 0 75.5 34t29.5 87q0 43 -24 68t-65 25q-46 0 -76.5 -34.5t-30.5 -85.5q0 -43 25 -68.5t66 -25.5zM328 698h165l-132 -171h-113z
" />
    <glyph glyph-name="ocircumflex" unicode="&#xf4;" horiz-adv-x="603" 
d="M308 460q118 0 188.5 -62.5t70.5 -166.5q0 -108 -73.5 -176t-190.5 -68q-120 0 -194 64.5t-74 170.5q0 104 76.5 171t196.5 67zM294 116q46 0 75.5 34t29.5 87q0 43 -24 68t-65 25q-46 0 -76.5 -34.5t-30.5 -85.5q0 -43 25 -68.5t66 -25.5zM336 574l-109 -75l-62 74
l192 128l129 -133l-77 -69z" />
    <glyph glyph-name="otilde" unicode="&#xf5;" horiz-adv-x="603" 
d="M308 460q118 0 188.5 -62.5t70.5 -166.5q0 -108 -73.5 -176t-190.5 -68q-120 0 -194 64.5t-74 170.5q0 104 76.5 171t196.5 67zM294 116q46 0 75.5 34t29.5 87q0 43 -24 68t-65 25q-46 0 -76.5 -34.5t-30.5 -85.5q0 -43 25 -68.5t66 -25.5zM440 671l79 -46
q-23 -44 -52 -69q-35 -31 -77 -31q-27 0 -66 15l-36 14q-41 15 -48 15q-33 0 -47 -42l-78 46q18 42 48 68q35 30 85 30q33 0 68 -14l29 -12q46 -18 50 -18q29 0 45 44z" />
    <glyph glyph-name="odieresis" unicode="&#xf6;" horiz-adv-x="603" 
d="M308 460q118 0 188.5 -62.5t70.5 -166.5q0 -108 -73.5 -176t-190.5 -68q-120 0 -194 64.5t-74 170.5q0 104 76.5 171t196.5 67zM294 116q46 0 75.5 34t29.5 87q0 43 -24 68t-65 25q-46 0 -76.5 -34.5t-30.5 -85.5q0 -43 25 -68.5t66 -25.5zM418 687q32 0 56 -24t24 -56
q0 -34 -23 -57t-56 -23q-34 0 -58 23.5t-24 57.5q0 32 24 55.5t57 23.5zM216 687q34 0 57 -23.5t23 -56.5q0 -34 -23 -57t-56 -23q-35 0 -58 23.5t-23 57.5q0 33 23 56t57 23z" />
    <glyph glyph-name="divide" unicode="&#xf7;" 
d="M189 510q0 31 21.5 52.5t52.5 21.5t53 -21.5t22 -52.5t-22 -53t-53 -21q-30 0 -52 21.5t-22 52.5zM189 170q0 31 21.5 52.5t52.5 21.5t53 -21.5t22 -52.5t-22 -53t-53 -21q-30 0 -52 21.5t-22 52.5zM47 280v120h433v-120h-433z" />
    <glyph glyph-name="oslash" unicode="&#xf8;" horiz-adv-x="626" 
d="M8 5l87 77q-48 58 -48 138q0 97 67 164q76 76 200 76q89 0 159 -40l91 81l54 -59l-85 -75q46 -59 46 -140q0 -99 -63 -164q-75 -76 -210 -76q-90 0 -151 42l-93 -82zM409 260l-150 -134q20 -11 46 -11q45 0 72 29q34 35 34 92q0 8 -2 24zM216 188l149 132q-16 11 -37 11
q-45 0 -75 -27q-38 -34 -38 -97q0 -4 0.5 -10.5t0.5 -8.5z" />
    <glyph glyph-name="ugrave" unicode="&#xf9;" horiz-adv-x="597" 
d="M399 447h164l-28 -236q-16 -128 -67 -170q-63 -54 -189 -54q-107 0 -165.5 45.5t-58.5 130.5q0 28 4 61l28 223h164l-26 -213q-5 -45 -5 -52q0 -58 67 -58q39 0 58 20.5t25 69.5zM280 527l-89 171h164l38 -171h-113z" />
    <glyph glyph-name="uacute" unicode="&#xfa;" horiz-adv-x="597" 
d="M399 447h164l-28 -236q-16 -128 -67 -170q-63 -54 -189 -54q-107 0 -165.5 45.5t-58.5 130.5q0 28 4 61l28 223h164l-26 -213q-5 -45 -5 -52q0 -58 67 -58q39 0 58 20.5t25 69.5zM356 698h165l-132 -171h-113z" />
    <glyph glyph-name="ucircumflex" unicode="&#xfb;" horiz-adv-x="597" 
d="M399 447h164l-28 -236q-16 -128 -67 -170q-63 -54 -189 -54q-107 0 -165.5 45.5t-58.5 130.5q0 28 4 61l28 223h164l-26 -213q-5 -45 -5 -52q0 -58 67 -58q39 0 58 20.5t25 69.5zM350 574l-109 -75l-62 74l192 128l129 -133l-77 -69z" />
    <glyph glyph-name="udieresis" unicode="&#xfc;" horiz-adv-x="597" 
d="M399 447h164l-28 -236q-16 -128 -67 -170q-63 -54 -189 -54q-107 0 -165.5 45.5t-58.5 130.5q0 28 4 61l28 223h164l-26 -213q-5 -45 -5 -52q0 -58 67 -58q39 0 58 20.5t25 69.5zM432 687q32 0 56 -24t24 -56q0 -34 -23 -57t-56 -23q-34 0 -58 23.5t-24 57.5
q0 32 24 55.5t57 23.5zM230 687q34 0 57 -23.5t23 -56.5q0 -34 -23 -57t-56 -23q-35 0 -58 23.5t-23 57.5q0 33 23 56t57 23z" />
    <glyph glyph-name="yacute" unicode="&#xfd;" horiz-adv-x="588" 
d="M427 447h188l-418 -676h-185l160 264l-158 412h183l48 -121q23 -57 37 -128q23 50 59 108zM348 698h165l-132 -171h-113z" />
    <glyph glyph-name="thorn" unicode="&#xfe;" horiz-adv-x="614" 
d="M119 729h165l-35 -284l-13 -55q43 39 78 54.5t79 15.5q85 0 134.5 -58t49.5 -158q0 -116 -58.5 -186.5t-154.5 -70.5q-98 0 -161 89l-37 -305h-164zM304 116q46 0 75.5 34t29.5 87q0 43 -24 68t-64 25q-46 0 -76 -34.5t-30 -85.5q0 -43 24.5 -68.5t64.5 -25.5z" />
    <glyph glyph-name="ydieresis" unicode="&#xff;" horiz-adv-x="588" 
d="M427 447h188l-418 -676h-185l160 264l-158 412h183l48 -121q23 -57 37 -128q23 50 59 108zM432 687q32 0 56 -24t24 -56q0 -34 -23 -57t-56 -23q-34 0 -58 23.5t-24 57.5q0 32 24 55.5t57 23.5zM230 687q34 0 57 -23.5t23 -56.5q0 -34 -23 -57t-56 -23q-35 0 -58 23.5
t-23 57.5q0 33 23 56t57 23z" />
    <glyph glyph-name="Amacron" unicode="&#x100;" horiz-adv-x="695" 
d="M462 112h-238l-51 -112h-188l331 667h190l161 -667h-177zM353 393l-67 -149h144l-28 127q-11 53 -15 77q-3 17 -4 24q-11 -36 -30 -79zM214 749l12 98h376l-12 -98h-376z" />
    <glyph glyph-name="amacron" unicode="&#x101;" horiz-adv-x="612" 
d="M414 447h165l-55 -447h-165l12 49q-38 -35 -72 -48.5t-80 -13.5q-85 0 -135.5 57t-50.5 154q0 113 67 187.5t168 74.5q47 0 78 -13.5t67 -50.5zM291 116q45 0 74.5 34.5t29.5 86.5q0 43 -24 68t-64 25q-45 0 -75.5 -34.5t-30.5 -85.5q0 -43 24.5 -68.5t65.5 -25.5z
M133 539l12 98h396l-12 -98h-396z" />
    <glyph glyph-name="Abreve" unicode="&#x102;" horiz-adv-x="695" 
d="M462 112h-238l-51 -112h-188l331 667h190l161 -667h-177zM353 393l-67 -149h144l-28 127q-11 53 -15 77q-3 17 -4 24q-11 -36 -30 -79zM251 861q0 2 0.5 8.5t0.5 11.5h99q4 -62 65 -62q60 0 81 62h102q-13 -74 -60.5 -114t-123.5 -40q-72 0 -118 37.5t-46 96.5z" />
    <glyph glyph-name="abreve" unicode="&#x103;" horiz-adv-x="612" 
d="M414 447h165l-55 -447h-165l12 49q-38 -35 -72 -48.5t-80 -13.5q-85 0 -135.5 57t-50.5 154q0 113 67 187.5t168 74.5q47 0 78 -13.5t67 -50.5zM291 116q45 0 74.5 34.5t29.5 86.5q0 43 -24 68t-64 25q-45 0 -75.5 -34.5t-30.5 -85.5q0 -43 24.5 -68.5t65.5 -25.5z
M171 661q0 2 0.5 8.5t0.5 11.5h99q4 -62 65 -62q60 0 81 62h102q-13 -74 -60.5 -114t-123.5 -40q-72 0 -118 37.5t-46 96.5z" />
    <glyph glyph-name="Aogonek" unicode="&#x104;" horiz-adv-x="695" 
d="M460 122h-232l-55 -122h-188l331 667h190l161 -667h-99q-20 -15 -38 -33q-22 -22 -22 -40q0 -16 10 -25q9 -9 25 -9q25 0 49 18l-32 -86q-33 -18 -68 -18q-40 0 -62 23q-22 24 -22 57q0 37 28 69q23 26 54 44zM402 371q-13 62 -19 101q-13 -41 -30 -79l-62 -138h136z" />
    <glyph glyph-name="aogonek" unicode="&#x105;" horiz-adv-x="612" 
d="M414 447h165l-55 -447h-40q-18 -12 -38 -34q-20 -20 -20 -42q0 -15 9 -22q11 -9 30 -9q16 0 48 18l-32 -88q-32 -13 -63 -13q-44 0 -67 22q-22 20 -22 57q0 31 26 64q25 30 56 47h-52l12 49q-34 -30 -58 -42q-40 -20 -94 -20q-77 0 -124 45q-62 57 -62 166q0 119 74 195
q67 67 166 67q52 0 86 -20q18 -10 55 -44v51zM291 116q43 0 71 31q33 37 33 90q0 43 -27 70q-25 23 -61 23q-41 0 -70 -29q-36 -36 -36 -91q0 -42 25 -68t65 -26z" />
    <glyph glyph-name="Cacute" unicode="&#x106;" horiz-adv-x="607" 
d="M414 680q103 0 202 -56l-20 -165q-73 61 -163 61q-92 0 -151 -54.5t-59 -139.5q0 -80 52 -129.5t135 -49.5q78 0 153 42l-21 -170q-90 -32 -157 -32q-148 0 -241.5 92.5t-93.5 238.5q0 152 105.5 257t258.5 105zM438 898h165l-132 -171h-113z" />
    <glyph glyph-name="cacute" unicode="&#x107;" horiz-adv-x="423" 
d="M282 460q72 0 135 -31l-17 -139q-44 40 -91 40q-46 0 -76 -33t-30 -84q0 -44 24.5 -70t67.5 -26q41 0 88 34l-17 -140q-72 -24 -118 -24q-94 0 -153.5 62t-59.5 160q0 109 70 180t177 71zM328 698h165l-132 -171h-113z" />
    <glyph glyph-name="Ccircumflex" unicode="&#x108;" horiz-adv-x="607" 
d="M414 680q103 0 202 -56l-20 -165q-73 61 -163 61q-92 0 -151 -54.5t-59 -139.5q0 -80 52 -129.5t135 -49.5q78 0 153 42l-21 -170q-90 -32 -157 -32q-148 0 -241.5 92.5t-93.5 238.5q0 152 105.5 257t258.5 105zM445 777l-107 -66l-70 69l192 122l150 -119l-82 -72z" />
    <glyph glyph-name="ccircumflex" unicode="&#x109;" horiz-adv-x="423" 
d="M282 460q72 0 135 -31l-17 -139q-44 40 -91 40q-46 0 -76 -33t-30 -84q0 -44 24.5 -70t67.5 -26q41 0 88 34l-17 -140q-72 -24 -118 -24q-94 0 -153.5 62t-59.5 160q0 109 70 180t177 71zM316 574l-109 -75l-62 74l192 128l129 -133l-77 -69z" />
    <glyph glyph-name="Cdotaccent" unicode="&#x10a;" horiz-adv-x="607" 
d="M414 680q103 0 202 -56l-20 -165q-73 61 -163 61q-92 0 -151 -54.5t-59 -139.5q0 -80 52 -129.5t135 -49.5q78 0 153 42l-21 -170q-90 -32 -157 -32q-148 0 -241.5 92.5t-93.5 238.5q0 152 105.5 257t258.5 105zM350 811q0 38 26.5 64.5t64.5 26.5t64.5 -26.5t26.5 -64.5
t-26.5 -64.5t-64.5 -26.5t-64.5 26.5t-26.5 64.5z" />
    <glyph glyph-name="cdotaccent" unicode="&#x10b;" horiz-adv-x="423" 
d="M282 460q72 0 135 -31l-17 -139q-44 40 -91 40q-46 0 -76 -33t-30 -84q0 -44 24.5 -70t67.5 -26q41 0 88 34l-17 -140q-72 -24 -118 -24q-94 0 -153.5 62t-59.5 160q0 109 70 180t177 71zM212 611q0 38 26.5 64.5t64.5 26.5t64.5 -26.5t26.5 -64.5t-26.5 -64.5
t-64.5 -26.5t-64.5 26.5t-26.5 64.5z" />
    <glyph glyph-name="Ccaron" unicode="&#x10c;" horiz-adv-x="607" 
d="M414 680q103 0 202 -56l-20 -165q-73 61 -163 61q-92 0 -151 -54.5t-59 -139.5q0 -80 52 -129.5t135 -49.5q78 0 153 42l-21 -170q-90 -32 -157 -32q-148 0 -241.5 92.5t-93.5 238.5q0 152 105.5 257t258.5 105zM349 902l88 -66l106 66l67 -72l-184 -119l-157 122z" />
    <glyph glyph-name="ccaron" unicode="&#x10d;" horiz-adv-x="423" 
d="M282 460q72 0 135 -31l-17 -139q-44 40 -91 40q-46 0 -76 -33t-30 -84q0 -44 24.5 -70t67.5 -26q41 0 88 34l-17 -140q-72 -24 -118 -24q-94 0 -153.5 62t-59.5 160q0 109 70 180t177 71zM243 699l76 -73l103 75l66 -72l-183 -130l-144 133z" />
    <glyph glyph-name="Dcaron" unicode="&#x10e;" horiz-adv-x="694" 
d="M42 0l82 667h189q178 0 267 -83q84 -78 84 -225q0 -180 -112 -273q-105 -86 -290 -86h-220zM321 520h-46l-46 -373h51q96 0 150 51q60 55 60 153q0 86 -48 131q-41 38 -121 38zM289 902l88 -66l106 66l67 -72l-184 -119l-157 122z" />
    <glyph glyph-name="dcaron" unicode="&#x10f;" horiz-adv-x="790" 
d="M448 729h165l-90 -729h-164l12 53q-40 -36 -75.5 -51t-81.5 -15q-82 0 -132 56t-50 147q0 115 65.5 192.5t161.5 77.5q47 0 80.5 -16t67.5 -55zM290 116q45 0 74.5 34.5t29.5 86.5q0 43 -24 68t-64 25q-46 0 -76 -34.5t-30 -85.5q0 -43 24.5 -68.5t65.5 -25.5zM720 700
l150 -26l-140 -202l-100 18z" />
    <glyph glyph-name="Dcroat" unicode="&#x110;" horiz-adv-x="736" 
d="M84 0l37 296h-91l15 120h90l31 251h206q83 0 134 -13t89 -42q50 -39 79 -101q32 -70 32 -153q0 -122 -59.5 -214t-157.5 -122q-71 -22 -185 -22h-220zM378 520h-61l-13 -104h118l-14 -120h-120l-17 -149h58q63 0 98.5 14.5t62.5 50.5q42 57 42 146q0 84 -37 123t-117 39z
" />
    <glyph glyph-name="dcroat" unicode="&#x111;" horiz-adv-x="650" 
d="M437 643l11 86h165l-11 -86h98l-14 -110h-97l-66 -533h-164l12 53q-40 -36 -75.5 -51t-81.5 -15q-82 0 -132 56t-50 147q0 115 65.5 192.5t161.5 77.5q47 0 80.5 -16t67.5 -55l16 144h-170l14 110h170zM290 116q45 0 74.5 34.5t29.5 86.5q0 43 -24 68t-64 25
q-46 0 -76 -34.5t-30 -85.5q0 -43 24.5 -68.5t65.5 -25.5z" />
    <glyph glyph-name="Emacron" unicode="&#x112;" horiz-adv-x="483" 
d="M124 667h365l-18 -147h-196l-14 -111h190l-18 -146h-190l-14 -116h204l-18 -147h-373zM119 749l12 98h376l-12 -98h-376z" />
    <glyph glyph-name="emacron" unicode="&#x113;" horiz-adv-x="561" 
d="M525 190h-334q0 -55 23 -76q17 -17 51 -17q25 0 42 12q16 11 22 30h180q-16 -48 -49 -81q-69 -71 -194 -71q-107 0 -171 59q-61 59 -61 158q0 114 73 185t191 71q107 0 169 -62q60 -60 60 -170q0 -14 -2 -38zM202 283h156q-2 33 -23 53q-20 18 -52 18q-35 0 -57 -22
q-18 -18 -24 -49zM93 539l12 98h396l-12 -98h-396z" />
    <glyph glyph-name="Edotaccent" unicode="&#x116;" horiz-adv-x="483" 
d="M124 667h365l-18 -147h-196l-14 -111h190l-18 -146h-190l-14 -116h204l-18 -147h-373zM226 811q0 38 26.5 64.5t64.5 26.5t64.5 -26.5t26.5 -64.5t-26.5 -64.5t-64.5 -26.5t-64.5 26.5t-26.5 64.5z" />
    <glyph glyph-name="edotaccent" unicode="&#x117;" horiz-adv-x="561" 
d="M525 190h-334q0 -55 23 -76q17 -17 51 -17q25 0 42 12q16 11 22 30h180q-16 -48 -49 -81q-69 -71 -194 -71q-107 0 -171 59q-61 59 -61 158q0 114 73 185t191 71q107 0 169 -62q60 -60 60 -170q0 -14 -2 -38zM202 283h156q-2 33 -23 53q-20 18 -52 18q-35 0 -57 -22
q-18 -18 -24 -49zM211 611q0 38 26.5 64.5t64.5 26.5t64.5 -26.5t26.5 -64.5t-26.5 -64.5t-64.5 -26.5t-64.5 26.5t-26.5 64.5z" />
    <glyph glyph-name="Eogonek" unicode="&#x118;" horiz-adv-x="483" 
d="M124 667h365l-18 -147h-196l-14 -115h190l-18 -146h-190l-14 -112h204l-18 -147h-40q-20 -15 -38 -33q-22 -22 -22 -40q0 -16 10 -25q9 -9 25 -9q25 0 49 18l-32 -86q-33 -18 -68 -18q-40 0 -62 23q-22 24 -22 57q0 37 28 69q23 26 54 44h-255z" />
    <glyph glyph-name="eogonek" unicode="&#x119;" horiz-adv-x="561" 
d="M525 190h-334q2 -43 18 -65t60 -22q31 0 46 14q13 12 17 32h180q-10 -51 -49 -89q-28 -26 -71 -52q-48 -32 -60 -44q-20 -18 -20 -40q0 -14 9 -22q11 -9 30 -9q17 0 48 18l-32 -88q-28 -13 -63 -13q-43 0 -67 22q-22 20 -22 57q0 30 20 56q19 25 45 42q-124 0 -185 59
t-61 157q0 113 70 183q74 74 193 74q108 0 169 -61t61 -169q0 -26 -2 -40zM202 283h156q-2 30 -19 49q-18 20 -55 20t-58 -21q-19 -21 -24 -48z" />
    <glyph glyph-name="Ecaron" unicode="&#x11a;" horiz-adv-x="483" 
d="M124 667h365l-18 -147h-196l-14 -111h190l-18 -146h-190l-14 -116h204l-18 -147h-373zM239 902l88 -66l106 66l67 -72l-184 -119l-157 122z" />
    <glyph glyph-name="ecaron" unicode="&#x11b;" horiz-adv-x="561" 
d="M525 190h-334q0 -55 23 -76q17 -17 51 -17q25 0 42 12q16 11 22 30h180q-16 -48 -49 -81q-69 -71 -194 -71q-107 0 -171 59q-61 59 -61 158q0 114 73 185t191 71q107 0 169 -62q60 -60 60 -170q0 -14 -2 -38zM202 283h156q-2 33 -23 53q-20 18 -52 18q-35 0 -57 -22
q-18 -18 -24 -49zM238 699l76 -73l103 75l66 -72l-183 -130l-144 133z" />
    <glyph glyph-name="Gcircumflex" unicode="&#x11c;" horiz-adv-x="752" 
d="M389 237l16 134h321q-3 -108 -33 -185q-35 -93 -118.5 -146t-192.5 -53q-147 0 -239.5 91.5t-92.5 236.5q0 158 103.5 261.5t261.5 103.5q127 0 213 -72q32 -27 49 -51.5t37 -71.5l-147 -57q-49 109 -156 109q-80 0 -133.5 -62.5t-53.5 -156.5q0 -81 49 -133t126 -52
q55 0 94.5 28.5t50.5 75.5h-155zM445 777l-107 -66l-70 69l192 122l150 -119l-82 -72z" />
    <glyph glyph-name="gcircumflex" unicode="&#x11d;" horiz-adv-x="608" 
d="M411 447h164l-49 -392q-11 -90 -27.5 -140t-47.5 -81q-64 -63 -199 -63q-118 0 -176 54q-28 25 -42.5 53t-22.5 72h157q5 -23 27 -37t57 -14q47 0 71 24.5t31 80.5l5 42q-36 -34 -64 -46.5t-67 -12.5q-91 0 -144 60t-53 162q0 110 63 180.5t162 70.5q48 0 83 -17.5
t69 -60.5zM289 117q44 0 70 32.5t26 86.5q0 44 -23.5 69t-63.5 25q-44 0 -71.5 -32t-27.5 -82q0 -45 24.5 -72t65.5 -27zM366 574l-109 -75l-62 74l192 128l129 -133l-77 -69z" />
    <glyph glyph-name="Gbreve" unicode="&#x11e;" horiz-adv-x="752" 
d="M389 237l16 134h321q-3 -108 -33 -185q-35 -93 -118.5 -146t-192.5 -53q-147 0 -239.5 91.5t-92.5 236.5q0 158 103.5 261.5t261.5 103.5q127 0 213 -72q32 -27 49 -51.5t37 -71.5l-147 -57q-49 109 -156 109q-80 0 -133.5 -62.5t-53.5 -156.5q0 -81 49 -133t126 -52
q55 0 94.5 28.5t50.5 75.5h-155zM261 861q0 2 0.5 8.5t0.5 11.5h99q4 -62 65 -62q60 0 81 62h102q-13 -74 -60.5 -114t-123.5 -40q-72 0 -118 37.5t-46 96.5z" />
    <glyph glyph-name="gbreve" unicode="&#x11f;" horiz-adv-x="608" 
d="M411 447h164l-49 -392q-11 -90 -27.5 -140t-47.5 -81q-64 -63 -199 -63q-118 0 -176 54q-28 25 -42.5 53t-22.5 72h157q5 -23 27 -37t57 -14q47 0 71 24.5t31 80.5l5 42q-36 -34 -64 -46.5t-67 -12.5q-91 0 -144 60t-53 162q0 110 63 180.5t162 70.5q48 0 83 -17.5
t69 -60.5zM289 117q44 0 70 32.5t26 86.5q0 44 -23.5 69t-63.5 25q-44 0 -71.5 -32t-27.5 -82q0 -45 24.5 -72t65.5 -27zM176 661q0 2 0.5 8.5t0.5 11.5h99q4 -62 65 -62q60 0 81 62h102q-13 -74 -60.5 -114t-123.5 -40q-72 0 -118 37.5t-46 96.5z" />
    <glyph glyph-name="Gdotaccent" unicode="&#x120;" horiz-adv-x="752" 
d="M389 237l16 134h321q-3 -108 -33 -185q-35 -93 -118.5 -146t-192.5 -53q-147 0 -239.5 91.5t-92.5 236.5q0 158 103.5 261.5t261.5 103.5q127 0 213 -72q32 -27 49 -51.5t37 -71.5l-147 -57q-49 109 -156 109q-80 0 -133.5 -62.5t-53.5 -156.5q0 -81 49 -133t126 -52
q55 0 94.5 28.5t50.5 75.5h-155zM334 837q0 38 26.5 64.5t64.5 26.5t64.5 -26.5t26.5 -64.5t-26.5 -64.5t-64.5 -26.5t-64.5 26.5t-26.5 64.5z" />
    <glyph glyph-name="gdotaccent" unicode="&#x121;" horiz-adv-x="608" 
d="M411 447h164l-49 -392q-11 -90 -27.5 -140t-47.5 -81q-64 -63 -199 -63q-118 0 -176 54q-28 25 -42.5 53t-22.5 72h157q5 -23 27 -37t57 -14q47 0 71 24.5t31 80.5l5 42q-36 -34 -64 -46.5t-67 -12.5q-91 0 -144 60t-53 162q0 110 63 180.5t162 70.5q48 0 83 -17.5
t69 -60.5zM289 117q44 0 70 32.5t26 86.5q0 44 -23.5 69t-63.5 25q-44 0 -71.5 -32t-27.5 -82q0 -45 24.5 -72t65.5 -27zM213 611q0 38 26.5 64.5t64.5 26.5t64.5 -26.5t26.5 -64.5t-26.5 -64.5t-64.5 -26.5t-64.5 26.5t-26.5 64.5z" />
    <glyph glyph-name="Gcommaaccent" unicode="&#x122;" horiz-adv-x="752" 
d="M389 237l16 134h321q-3 -108 -33 -185q-35 -93 -118.5 -146t-192.5 -53q-147 0 -239.5 91.5t-92.5 236.5q0 158 103.5 261.5t261.5 103.5q127 0 213 -72q32 -27 49 -51.5t37 -71.5l-147 -57q-49 109 -156 109q-80 0 -133.5 -62.5t-53.5 -156.5q0 -81 49 -133t126 -52
q55 0 94.5 28.5t50.5 75.5h-155zM310 -50l150 -16l-120 -194l-100 12z" />
    <glyph glyph-name="gcommaaccent" unicode="&#x123;" horiz-adv-x="608" 
d="M411 447h164l-49 -392q-11 -90 -27.5 -140t-47.5 -81q-64 -63 -199 -63q-118 0 -176 54q-28 25 -42.5 53t-22.5 72h157q5 -23 27 -37t57 -14q47 0 71 24.5t31 80.5l5 42q-36 -34 -64 -46.5t-67 -12.5q-91 0 -144 60t-53 162q0 110 63 180.5t162 70.5q48 0 83 -17.5
t69 -60.5zM289 117q44 0 70 32.5t26 86.5q0 44 -23.5 69t-63.5 25q-44 0 -71.5 -32t-27.5 -82q0 -45 24.5 -72t65.5 -27zM365 509l-150 16l120 184l100 -12z" />
    <glyph glyph-name="Hcircumflex" unicode="&#x124;" horiz-adv-x="724" 
d="M539 667h169l-82 -667h-169l33 273h-245l-34 -273h-169l82 667h169l-30 -247h245zM440 777l-107 -66l-70 69l192 122l150 -119l-82 -72z" />
    <glyph glyph-name="hcircumflex" unicode="&#x125;" horiz-adv-x="593" 
d="M122 729h165l-40 -322q76 53 147 53q70 0 107.5 -40.5t37.5 -117.5q0 -28 -6 -74l-28 -228h-165l22 179q7 53 7 73q0 71 -60 71q-40 0 -59.5 -25t-26.5 -86l-26 -212h-165zM216 824l-109 -75l-62 74l192 128l129 -133l-77 -69z" />
    <glyph glyph-name="Hbar" unicode="&#x126;" horiz-adv-x="724" 
d="M293 667l-7 -53h246l7 53h169l-7 -53h56l-14 -117h-56l-61 -497h-169l33 273h-246l-33 -273h-169l61 497h-56l14 117h56l7 53h169zM518 497h-246l-10 -76h246z" />
    <glyph glyph-name="hbar" unicode="&#x127;" horiz-adv-x="596" 
d="M35 0l66 533h-83l14 110h83l10 86h165l-10 -86h166l-14 -110h-166l-16 -126q76 53 147 53q70 0 107.5 -40.5t37.5 -117.5q0 -28 -6 -74l-28 -228h-165l22 179q7 53 7 73q0 71 -60 71q-40 0 -59.5 -25t-26.5 -86l-26 -212h-165z" />
    <glyph glyph-name="Imacron" unicode="&#x12a;" horiz-adv-x="309" 
d="M124 667h169l-82 -667h-169zM14 749l12 98h376l-12 -98h-376z" />
    <glyph glyph-name="imacron" unicode="&#x12b;" horiz-adv-x="285" 
d="M87 447h165l-55 -447h-165zM-30 539l12 98h396l-12 -98h-396z" />
    <glyph glyph-name="Iogonek" unicode="&#x12e;" horiz-adv-x="309" 
d="M124 667h169l-82 -667q-20 -15 -38 -33q-22 -22 -22 -40q0 -16 10 -25q9 -9 25 -9q25 0 49 18l-32 -86q-33 -18 -68 -18q-40 0 -62 23q-22 24 -22 57q0 37 28 69q23 26 54 44h-91z" />
    <glyph glyph-name="iogonek" unicode="&#x12f;" horiz-adv-x="285" 
d="M194 713q38 0 66.5 -28.5t28.5 -67.5q0 -41 -28.5 -70.5t-68.5 -29.5q-41 0 -70 29t-29 70q0 40 29.5 68.5t71.5 28.5zM87 447h165l-55 -447q-14 -10 -38 -34q-20 -23 -20 -39t10 -25q9 -9 25 -9q20 0 52 18l-32 -86q-28 -15 -63 -15q-43 0 -66 23t-23 57q0 38 32 71
q21 21 50 39h-92z" />
    <glyph glyph-name="Idotaccent" unicode="&#x130;" horiz-adv-x="309" 
d="M124 667h169l-82 -667h-169zM126 811q0 38 26.5 64.5t64.5 26.5t64.5 -26.5t26.5 -64.5t-26.5 -64.5t-64.5 -26.5t-64.5 26.5t-26.5 64.5z" />
    <glyph glyph-name="dotlessi" unicode="&#x131;" horiz-adv-x="285" 
d="M87 447h165l-55 -447h-165z" />
    <glyph glyph-name="Jcircumflex" unicode="&#x134;" horiz-adv-x="481" 
d="M296 667h169l-57 -459q-7 -55 -20.5 -94.5t-47.5 -73.5q-53 -53 -146 -53q-81 0 -132 37q-42 30 -69 82l125 97q6 -28 21 -45q14 -17 42 -17q22 0 37 16q17 18 25 79zM415 777l-107 -66l-70 69l192 122l150 -119l-82 -72z" />
    <glyph glyph-name="jcircumflex" unicode="&#x135;" horiz-adv-x="276" 
d="M85 447h165l-84 -676h-164zM199 574l-109 -75l-62 74l192 128l129 -133l-77 -69z" />
    <glyph glyph-name="Kcommaaccent" unicode="&#x136;" horiz-adv-x="672" 
d="M124 667h169l-36 -292l220 292h194l-255 -340l228 -327h-203l-143 213q-24 36 -50 88l-37 -301h-169zM250 -50l150 -16l-120 -194l-100 12z" />
    <glyph glyph-name="kcommaaccent" unicode="&#x137;" horiz-adv-x="605" 
d="M122 729h165l-55 -442l143 160h208l-195 -204l209 -243h-201l-66 75q-53 61 -107 135l-26 -210h-165zM220 -50l150 -16l-120 -184l-100 12z" />
    <glyph glyph-name="Lacute" unicode="&#x139;" horiz-adv-x="472" 
d="M124 667h169l-64 -520h213l-19 -147h-381zM228 898h165l-132 -171h-113z" />
    <glyph glyph-name="lacute" unicode="&#x13a;" horiz-adv-x="285" 
d="M122 729h165l-90 -729h-165zM213 948h165l-132 -171h-113z" />
    <glyph glyph-name="Lcommaaccent" unicode="&#x13b;" horiz-adv-x="472" 
d="M124 667h169l-64 -520h213l-19 -147h-381zM180 -50l150 -16l-120 -194l-100 12z" />
    <glyph glyph-name="lcommaaccent" unicode="&#x13c;" horiz-adv-x="285" 
d="M122 729h165l-90 -729h-165zM80 -50l150 -16l-120 -184l-100 12z" />
    <glyph glyph-name="Lcaron" unicode="&#x13d;" horiz-adv-x="472" 
d="M124 667h169l-64 -520h213l-19 -147h-381zM420 680l150 -26l-140 -202l-100 18z" />
    <glyph glyph-name="lcaron" unicode="&#x13e;" horiz-adv-x="470" 
d="M122 729h165l-90 -729h-165zM400 700l150 -26l-140 -202l-100 18z" />
    <glyph glyph-name="Ldot" unicode="&#x13f;" horiz-adv-x="472" 
d="M124 667h169l-64 -520h213l-19 -147h-381zM315 346q0 38 26.5 64.5t64.5 26.5t64.5 -26.5t26.5 -64.5t-26.5 -64.5t-64.5 -26.5t-64.5 26.5t-26.5 64.5z" />
    <glyph glyph-name="ldot" unicode="&#x140;" horiz-adv-x="442" 
d="M122 729h165l-90 -729h-165zM290 366q0 38 26.5 64.5t64.5 26.5t64.5 -26.5t26.5 -64.5t-26.5 -64.5t-64.5 -26.5t-64.5 26.5t-26.5 64.5z" />
    <glyph glyph-name="Lslash" unicode="&#x141;" horiz-adv-x="516" 
d="M138 382l35 285h169l-27 -222l110 65l-17 -138l-110 -65l-20 -160h208l-18 -147h-377l30 244l-93 -55l17 138z" />
    <glyph glyph-name="lslash" unicode="&#x142;" horiz-adv-x="302" 
d="M97 449l35 280h160l-27 -213l87 54l-15 -118l-86 -54l-49 -398h-160l41 331l-87 -54l14 118z" />
    <glyph glyph-name="Nacute" unicode="&#x143;" horiz-adv-x="798" 
d="M613 667h169l-82 -667h-185l-177 299q-40 66 -82 165v-30q0 -69 -7 -126l-38 -308h-169l82 667h182l190 -322l29 -54l26 -51l13 -25q2 63 8 114zM473 898h165l-132 -171h-113z" />
    <glyph glyph-name="nacute" unicode="&#x144;" horiz-adv-x="593" 
d="M87 447h165l-14 -58q46 40 81 55.5t81 15.5q68 0 104.5 -35t36.5 -101q0 -34 -5 -73l-31 -251h-165l25 197q4 35 4 55q0 71 -60 71q-40 0 -59.5 -27t-27.5 -94l-25 -202h-165zM363 698h165l-132 -171h-113z" />
    <glyph glyph-name="Ncommaaccent" unicode="&#x145;" horiz-adv-x="798" 
d="M613 667h169l-82 -667h-185l-177 299q-40 66 -82 165v-30q0 -69 -7 -126l-38 -308h-169l82 667h182l190 -322l29 -54l26 -51l13 -25q2 63 8 114zM290 -50l150 -16l-120 -194l-100 12z" />
    <glyph glyph-name="ncommaaccent" unicode="&#x146;" horiz-adv-x="593" 
d="M87 447h165l-14 -58q46 40 81 55.5t81 15.5q68 0 104.5 -35t36.5 -101q0 -34 -5 -73l-31 -251h-165l25 197q4 35 4 55q0 71 -60 71q-40 0 -59.5 -27t-27.5 -94l-25 -202h-165zM210 -50l150 -16l-120 -184l-100 12z" />
    <glyph glyph-name="Ncaron" unicode="&#x147;" horiz-adv-x="798" 
d="M613 667h169l-82 -667h-185l-177 299q-40 66 -82 165v-30q0 -69 -7 -126l-38 -308h-169l82 667h182l190 -322l29 -54l26 -51l13 -25q2 63 8 114zM374 902l88 -66l106 66l67 -72l-184 -119l-157 122z" />
    <glyph glyph-name="ncaron" unicode="&#x148;" horiz-adv-x="593" 
d="M87 447h165l-14 -58q46 40 81 55.5t81 15.5q68 0 104.5 -35t36.5 -101q0 -34 -5 -73l-31 -251h-165l25 197q4 35 4 55q0 71 -60 71q-40 0 -59.5 -27t-27.5 -94l-25 -202h-165zM278 699l76 -73l103 75l66 -72l-183 -130l-144 133z" />
    <glyph glyph-name="Omacron" unicode="&#x14c;" horiz-adv-x="805" 
d="M429 680q152 0 247.5 -85.5t101.5 -227.5v-13q0 -164 -100 -265.5t-262 -101.5q-163 0 -263.5 93t-100.5 244q0 157 105.5 256.5t271.5 99.5zM605 336q0 8 -1 12q-4 79 -53.5 125.5t-128.5 46.5q-86 0 -141.5 -54t-55.5 -136t51.5 -132.5t135.5 -50.5q86 0 139.5 52.5
t53.5 136.5zM234 749l12 98h376l-12 -98h-376z" />
    <glyph glyph-name="omacron" unicode="&#x14d;" horiz-adv-x="603" 
d="M308 460q118 0 188.5 -62.5t70.5 -166.5q0 -108 -73.5 -176t-190.5 -68q-120 0 -194 64.5t-74 170.5q0 104 76.5 171t196.5 67zM294 116q46 0 75.5 34t29.5 87q0 43 -24 68t-65 25q-46 0 -76.5 -34.5t-30.5 -85.5q0 -43 25 -68.5t66 -25.5zM123 539l12 98h396l-12 -98
h-396z" />
    <glyph glyph-name="Obreve" unicode="&#x14e;" horiz-adv-x="805" 
d="M429 680q152 0 247.5 -85.5t101.5 -227.5v-13q0 -164 -100 -265.5t-262 -101.5q-163 0 -263.5 93t-100.5 244q0 157 105.5 256.5t271.5 99.5zM605 336q0 8 -1 12q-4 79 -53.5 125.5t-128.5 46.5q-86 0 -141.5 -54t-55.5 -136t51.5 -132.5t135.5 -50.5q86 0 139.5 52.5
t53.5 136.5zM271 861q0 2 0.5 8.5t0.5 11.5h99q4 -62 65 -62q60 0 81 62h102q-13 -74 -60.5 -114t-123.5 -40q-72 0 -118 37.5t-46 96.5z" />
    <glyph glyph-name="obreve" unicode="&#x14f;" horiz-adv-x="603" 
d="M308 460q118 0 188.5 -62.5t70.5 -166.5q0 -108 -73.5 -176t-190.5 -68q-120 0 -194 64.5t-74 170.5q0 104 76.5 171t196.5 67zM294 116q46 0 75.5 34t29.5 87q0 43 -24 68t-65 25q-46 0 -76.5 -34.5t-30.5 -85.5q0 -43 25 -68.5t66 -25.5zM161 661q0 2 0.5 8.5t0.5 11.5
h99q4 -62 65 -62q60 0 81 62h102q-13 -74 -60.5 -114t-123.5 -40q-72 0 -118 37.5t-46 96.5z" />
    <glyph glyph-name="Ohungarumlaut" unicode="&#x150;" horiz-adv-x="805" 
d="M429 680q152 0 247.5 -85.5t101.5 -227.5v-13q0 -164 -100 -265.5t-262 -101.5q-163 0 -263.5 93t-100.5 244q0 157 105.5 256.5t271.5 99.5zM605 336q0 8 -1 12q-4 79 -53.5 125.5t-128.5 46.5q-86 0 -141.5 -54t-55.5 -136t51.5 -132.5t135.5 -50.5q86 0 139.5 52.5
t53.5 136.5zM340 898h151l-117 -171h-100zM540 898h151l-117 -171h-99z" />
    <glyph glyph-name="ohungarumlaut" unicode="&#x151;" horiz-adv-x="603" 
d="M308 460q118 0 188.5 -62.5t70.5 -166.5q0 -108 -73.5 -176t-190.5 -68q-120 0 -194 64.5t-74 170.5q0 104 76.5 171t196.5 67zM294 116q46 0 75.5 34t29.5 87q0 43 -24 68t-65 25q-46 0 -76.5 -34.5t-30.5 -85.5q0 -43 25 -68.5t66 -25.5zM228 698h151l-117 -171h-100z
M428 698h151l-117 -171h-99z" />
    <glyph glyph-name="OE" unicode="&#x152;" horiz-adv-x="985" 
d="M637 667h362l-18 -147h-207l-14 -115h186l-18 -146h-186l-14 -112h207l-18 -147h-356l9 75q-91 -88 -209 -88q-135 0 -222.5 94.5t-87.5 239.5q0 154 98 256.5t246 102.5q91 0 161 -46q23 -15 36 -28.5t33 -41.5zM409 147q83 0 133.5 50.5t50.5 133.5q0 84 -49.5 136.5
t-128.5 52.5q-82 0 -136.5 -57t-54.5 -142q0 -78 51 -126t134 -48z" />
    <glyph glyph-name="oe" unicode="&#x153;" horiz-adv-x="908" 
d="M872 192h-325q5 -47 26.5 -68.5t65.5 -21.5q49 0 71 34h152q-22 -47 -34.5 -65.5t-34.5 -37.5q-50 -46 -150 -46q-73 0 -130 25q-34 15 -66 48q-44 -40 -87 -56.5t-99 -16.5q-102 0 -164 63t-62 167q0 109 68.5 176t180.5 67q56 0 96.5 -15.5t79.5 -51.5q83 67 183 67
q49 0 95 -16t75 -43q60 -59 60 -175q0 -2 -0.5 -14t-0.5 -20zM292 116q46 0 75.5 34t29.5 87q0 43 -24 68t-64 25q-45 0 -75.5 -34.5t-30.5 -85.5q0 -43 24.5 -68.5t64.5 -25.5zM651 356q-74 0 -88 -71h170q-8 38 -27 54.5t-55 16.5z" />
    <glyph glyph-name="Racute" unicode="&#x154;" horiz-adv-x="620" 
d="M523 312q-30 -33 -88 -53l156 -259h-196l-152 265l-32 -265h-169l82 667h217q130 0 185 -58q51 -54 51 -149q0 -91 -54 -148zM308 533h-32l-21 -171h30q118 0 118 93q0 44 -21 61t-74 17zM363 898h165l-132 -171h-113z" />
    <glyph glyph-name="racute" unicode="&#x155;" horiz-adv-x="407" 
d="M87 447h165l-13 -61q39 35 70.5 48t78.5 13q4 0 32 -2l-18 -152q-37 20 -75 20q-51 0 -74.5 -27.5t-32.5 -95.5l-23 -190h-165zM278 698h165l-132 -171h-113z" />
    <glyph glyph-name="Rcommaaccent" unicode="&#x156;" horiz-adv-x="620" 
d="M523 312q-30 -33 -88 -53l156 -259h-196l-152 265l-32 -265h-169l82 667h217q130 0 185 -58q51 -54 51 -149q0 -91 -54 -148zM308 533h-32l-21 -171h30q118 0 118 93q0 44 -21 61t-74 17zM230 -50l150 -16l-120 -194l-100 12z" />
    <glyph glyph-name="rcommaaccent" unicode="&#x157;" horiz-adv-x="407" 
d="M87 447h165l-13 -61q39 35 70.5 48t78.5 13q4 0 32 -2l-18 -152q-37 20 -75 20q-51 0 -74.5 -27.5t-32.5 -95.5l-23 -190h-165zM140 -50l150 -16l-120 -184l-100 12z" />
    <glyph glyph-name="Rcaron" unicode="&#x158;" horiz-adv-x="620" 
d="M523 312q-30 -33 -88 -53l156 -259h-196l-152 265l-32 -265h-169l82 667h217q130 0 185 -58q51 -54 51 -149q0 -91 -54 -148zM308 533h-32l-21 -171h30q118 0 118 93q0 44 -21 61t-74 17zM269 902l88 -66l106 66l67 -72l-184 -119l-157 122z" />
    <glyph glyph-name="rcaron" unicode="&#x159;" horiz-adv-x="407" 
d="M87 447h165l-13 -61q39 35 70.5 48t78.5 13q4 0 32 -2l-18 -152q-37 20 -75 20q-51 0 -74.5 -27.5t-32.5 -95.5l-23 -190h-165zM198 699l76 -73l103 75l66 -72l-183 -130l-144 133z" />
    <glyph glyph-name="Sacute" unicode="&#x15a;" horiz-adv-x="529" 
d="M335 680q100 0 194 -61l-74 -128q-65 49 -117 49q-35 0 -55 -15.5t-20 -42.5q0 -24 17 -40t68 -40q83 -39 115.5 -80t32.5 -107q0 -100 -71.5 -164t-183.5 -64q-60 0 -109 16t-116 57l76 128q80 -55 141 -55q40 0 64.5 18.5t24.5 49.5q0 22 -15.5 37.5t-62.5 38.5
q-89 45 -121.5 85.5t-32.5 107.5q0 91 69.5 150.5t175.5 59.5zM358 898h165l-132 -171h-113z" />
    <glyph glyph-name="sacute" unicode="&#x15b;" horiz-adv-x="470" 
d="M273 462q78 0 166 -46l-39 -113q-62 38 -109 38q-57 0 -57 -27q0 -15 26 -22l54 -14q61 -16 90 -46.5t29 -78.5q0 -76 -56.5 -121t-151.5 -45q-56 0 -102 15.5t-104 52.5l61 108q48 -30 76.5 -41t62.5 -11q61 0 61 31q0 17 -25 24l-54 12q-63 15 -91.5 46t-28.5 84
q0 69 52.5 111.5t139.5 42.5zM303 698h165l-132 -171h-113z" />
    <glyph glyph-name="Scircumflex" unicode="&#x15c;" horiz-adv-x="529" 
d="M335 680q100 0 194 -61l-74 -128q-65 49 -117 49q-35 0 -55 -15.5t-20 -42.5q0 -24 17 -40t68 -40q83 -39 115.5 -80t32.5 -107q0 -100 -71.5 -164t-183.5 -64q-60 0 -109 16t-116 57l76 128q80 -55 141 -55q40 0 64.5 18.5t24.5 49.5q0 22 -15.5 37.5t-62.5 38.5
q-89 45 -121.5 85.5t-32.5 107.5q0 91 69.5 150.5t175.5 59.5zM365 777l-107 -66l-70 69l192 122l150 -119l-82 -72z" />
    <glyph glyph-name="scircumflex" unicode="&#x15d;" horiz-adv-x="470" 
d="M273 462q78 0 166 -46l-39 -113q-62 38 -109 38q-57 0 -57 -27q0 -15 26 -22l54 -14q61 -16 90 -46.5t29 -78.5q0 -76 -56.5 -121t-151.5 -45q-56 0 -102 15.5t-104 52.5l61 108q48 -30 76.5 -41t62.5 -11q61 0 61 31q0 17 -25 24l-54 12q-63 15 -91.5 46t-28.5 84
q0 69 52.5 111.5t139.5 42.5zM301 574l-109 -75l-62 74l192 128l129 -133l-77 -69z" />
    <glyph glyph-name="Scedilla" unicode="&#x15e;" horiz-adv-x="529" 
d="M335 680q100 0 194 -61l-74 -128q-65 49 -117 49q-35 0 -55 -15.5t-20 -42.5q0 -24 17 -40t68 -40q83 -39 115.5 -80t32.5 -107q0 -100 -71.5 -164t-183.5 -64q-60 0 -109 16t-116 57l76 128q80 -55 141 -55q40 0 64.5 18.5t24.5 49.5q0 22 -15.5 37.5t-62.5 38.5
q-89 45 -121.5 85.5t-32.5 107.5q0 91 69.5 150.5t175.5 59.5zM208 -46l112 -44l-136 -146l-92 40z" />
    <glyph glyph-name="scedilla" unicode="&#x15f;" horiz-adv-x="470" 
d="M273 462q78 0 166 -46l-39 -113q-62 38 -109 38q-57 0 -57 -27q0 -15 26 -22l54 -14q61 -16 90 -46.5t29 -78.5q0 -76 -56.5 -121t-151.5 -45q-56 0 -102 15.5t-104 52.5l61 108q48 -30 76.5 -41t62.5 -11q61 0 61 31q0 17 -25 24l-54 12q-63 15 -91.5 46t-28.5 84
q0 69 52.5 111.5t139.5 42.5zM190 -46l106 -44l-136 -146l-84 40z" />
    <glyph glyph-name="Scaron" unicode="&#x160;" horiz-adv-x="529" 
d="M335 680q100 0 194 -61l-74 -128q-65 49 -117 49q-35 0 -55 -15.5t-20 -42.5q0 -24 17 -40t68 -40q83 -39 115.5 -80t32.5 -107q0 -100 -71.5 -164t-183.5 -64q-60 0 -109 16t-116 57l76 128q80 -55 141 -55q40 0 64.5 18.5t24.5 49.5q0 22 -15.5 37.5t-62.5 38.5
q-89 45 -121.5 85.5t-32.5 107.5q0 91 69.5 150.5t175.5 59.5zM264 902l88 -66l106 66l67 -72l-184 -119l-157 122z" />
    <glyph glyph-name="scaron" unicode="&#x161;" horiz-adv-x="470" 
d="M273 462q78 0 166 -46l-39 -113q-62 38 -109 38q-57 0 -57 -27q0 -15 26 -22l54 -14q61 -16 90 -46.5t29 -78.5q0 -76 -56.5 -121t-151.5 -45q-56 0 -102 15.5t-104 52.5l61 108q48 -30 76.5 -41t62.5 -11q61 0 61 31q0 17 -25 24l-54 12q-63 15 -91.5 46t-28.5 84
q0 69 52.5 111.5t139.5 42.5zM218 699l76 -73l103 75l66 -72l-183 -130l-144 133z" />
    <glyph glyph-name="Tcedilla" unicode="&#x162;" horiz-adv-x="465" 
d="M496 520h-142l-65 -520h-168l64 520h-142l18 147h453zM188 -46l112 -44l-136 -146l-92 40z" />
    <glyph glyph-name="tcedilla" unicode="&#x163;" horiz-adv-x="333" 
d="M344 320h-88l-40 -320h-164l39 320h-70l15 127h71l17 147h165l-18 -147h88zM121 -46l106 -44l-136 -146l-84 40z" />
    <glyph glyph-name="Tcaron" unicode="&#x164;" horiz-adv-x="465" 
d="M354 520h142l18 147h-453l-18 -147h142l-64 -520h168zM219 902l88 -66l106 66l67 -72l-184 -119l-157 122z" />
    <glyph glyph-name="tcaron" unicode="&#x165;" horiz-adv-x="490" 
d="M344 320h-88l-40 -320h-164l39 320h-70l15 127h71l17 147h165l-18 -147h88zM420 700l150 -26l-140 -202l-100 18z" />
    <glyph glyph-name="Utilde" unicode="&#x168;" horiz-adv-x="717" 
d="M532 667h169l-47 -386q-12 -97 -28 -143t-48 -77q-77 -74 -228 -74q-130 0 -204 60.5t-74 167.5q0 26 8 92l44 360h168l-44 -360q-3 -30 -3 -56q0 -104 110 -104q65 0 95 33q26 29 36 107zM528 873l79 -46q-23 -44 -52 -69q-35 -31 -77 -31q-27 0 -66 15l-36 14
q-41 15 -48 15q-33 0 -47 -42l-78 46q18 42 48 68q35 30 85 30q33 0 68 -14l29 -12q46 -18 50 -18q29 0 45 44z" />
    <glyph glyph-name="utilde" unicode="&#x169;" horiz-adv-x="597" 
d="M399 447h164l-28 -236q-16 -128 -67 -170q-63 -54 -189 -54q-107 0 -165.5 45.5t-58.5 130.5q0 28 4 61l28 223h164l-26 -213q-5 -45 -5 -52q0 -58 67 -58q39 0 58 20.5t25 69.5zM468 671l79 -46q-23 -44 -52 -69q-35 -31 -77 -31q-27 0 -66 15l-36 14q-41 15 -48 15
q-33 0 -47 -42l-78 46q18 42 48 68q35 30 85 30q33 0 68 -14l29 -12q46 -18 50 -18q29 0 45 44z" />
    <glyph glyph-name="Umacron" unicode="&#x16a;" horiz-adv-x="717" 
d="M532 667h169l-47 -386q-12 -97 -28 -143t-48 -77q-77 -74 -228 -74q-130 0 -204 60.5t-74 167.5q0 26 8 92l44 360h168l-44 -360q-3 -30 -3 -56q0 -104 110 -104q65 0 95 33q26 29 36 107zM219 749l12 98h376l-12 -98h-376z" />
    <glyph glyph-name="umacron" unicode="&#x16b;" horiz-adv-x="597" 
d="M399 447h164l-28 -236q-16 -128 -67 -170q-63 -54 -189 -54q-107 0 -165.5 45.5t-58.5 130.5q0 28 4 61l28 223h164l-26 -213q-5 -45 -5 -52q0 -58 67 -58q39 0 58 20.5t25 69.5zM125 539l12 98h396l-12 -98h-396z" />
    <glyph glyph-name="Ubreve" unicode="&#x16c;" horiz-adv-x="717" 
d="M532 667h169l-47 -386q-12 -97 -28 -143t-48 -77q-77 -74 -228 -74q-130 0 -204 60.5t-74 167.5q0 26 8 92l44 360h168l-44 -360q-3 -30 -3 -56q0 -104 110 -104q65 0 95 33q26 29 36 107zM256 861q0 2 0.5 8.5t0.5 11.5h99q4 -62 65 -62q60 0 81 62h102
q-13 -74 -60.5 -114t-123.5 -40q-72 0 -118 37.5t-46 96.5z" />
    <glyph glyph-name="ubreve" unicode="&#x16d;" horiz-adv-x="597" 
d="M399 447h164l-28 -236q-16 -128 -67 -170q-63 -54 -189 -54q-107 0 -165.5 45.5t-58.5 130.5q0 28 4 61l28 223h164l-26 -213q-5 -45 -5 -52q0 -58 67 -58q39 0 58 20.5t25 69.5zM171 661q0 2 0.5 8.5t0.5 11.5h99q4 -62 65 -62q60 0 81 62h102q-13 -74 -60.5 -114
t-123.5 -40q-72 0 -118 37.5t-46 96.5z" />
    <glyph glyph-name="Uring" unicode="&#x16e;" horiz-adv-x="717" 
d="M532 667h169l-47 -386q-12 -97 -28 -143t-48 -77q-77 -74 -228 -74q-130 0 -204 60.5t-74 167.5q0 26 8 92l44 360h168l-44 -360q-3 -30 -3 -56q0 -104 110 -104q65 0 95 33q26 29 36 107zM427 727q-64 0 -99.5 26t-35.5 73q0 45 36 71.5t97 26.5q60 0 95 -26.5t35 -72.5
q0 -45 -34.5 -71.5t-93.5 -26.5zM424 862q-50 0 -50 -37q0 -17 13.5 -27t35.5 -10q51 0 51 37t-50 37z" />
    <glyph glyph-name="uring" unicode="&#x16f;" horiz-adv-x="597" 
d="M399 447h164l-28 -236q-16 -128 -67 -170q-63 -54 -189 -54q-107 0 -165.5 45.5t-58.5 130.5q0 28 4 61l28 223h164l-26 -213q-5 -45 -5 -52q0 -58 67 -58q39 0 58 20.5t25 69.5zM336 527q-64 0 -99.5 26t-35.5 73q0 45 36 71.5t97 26.5q60 0 95 -26.5t35 -72.5
q0 -45 -34.5 -71.5t-93.5 -26.5zM333 662q-50 0 -50 -37q0 -17 13.5 -27t35.5 -10q51 0 51 37t-50 37z" />
    <glyph glyph-name="Uhungarumlaut" unicode="&#x170;" horiz-adv-x="717" 
d="M532 667h169l-47 -386q-12 -97 -28 -143t-48 -77q-77 -74 -228 -74q-130 0 -204 60.5t-74 167.5q0 26 8 92l44 360h168l-44 -360q-3 -30 -3 -56q0 -104 110 -104q65 0 95 33q26 29 36 107zM296 898h151l-117 -171h-100zM496 898h151l-117 -171h-99z" />
    <glyph glyph-name="uhungarumlaut" unicode="&#x171;" horiz-adv-x="597" 
d="M399 447h164l-28 -236q-16 -128 -67 -170q-63 -54 -189 -54q-107 0 -165.5 45.5t-58.5 130.5q0 28 4 61l28 223h164l-26 -213q-5 -45 -5 -52q0 -58 67 -58q39 0 58 20.5t25 69.5zM223 698h151l-117 -171h-100zM423 698h151l-117 -171h-99z" />
    <glyph glyph-name="Uogonek" unicode="&#x172;" horiz-adv-x="717" 
d="M532 667h169l-48 -397q-7 -53 -10.5 -76t-15.5 -55t-31 -57q-32 -39 -89 -69q-13 -7 -37.5 -19t-37.5 -20q-37 -22 -37 -47q0 -16 10 -25q9 -9 25 -9q25 0 49 18l-32 -86q-33 -18 -68 -18q-40 0 -62 23q-22 24 -22 57q0 31 19 58q17 23 43 43q-7 -1 -22 -1q-56 0 -114 20
t-93 57q-56 58 -56 151q0 32 8 92l44 360h168l-43 -350q-5 -45 -5 -61q0 -55 25 -80q28 -29 86 -29q64 0 95 33q27 29 36 107z" />
    <glyph glyph-name="uogonek" unicode="&#x173;" horiz-adv-x="597" 
d="M399 447h164l-28 -236q-7 -58 -17.5 -91t-37.5 -62q-28 -30 -83 -56q-46 -21 -65 -38q-20 -17 -20 -40q0 -14 9 -22q11 -9 30 -9q20 0 48 18l-32 -88q-28 -13 -63 -13q-43 0 -67 22q-22 20 -22 57q0 30 20 56q19 25 45 42q-110 0 -168 48q-57 47 -57 128q0 35 4 61
l28 223h164l-27 -221q-4 -28 -4 -39q0 -29 15 -46q16 -17 54 -17q34 0 53 18q23 22 28 72z" />
    <glyph glyph-name="Ydieresis" unicode="&#x178;" horiz-adv-x="623" 
d="M676 667l-291 -375l-36 -292h-169l37 297l-170 370h187l46 -107q30 -71 36 -90l3.5 -10.5t3.5 -11.5q11 21 33 53l115 166h205zM459 887q32 0 56 -24t24 -56q0 -34 -23 -57t-56 -23q-34 0 -58 23.5t-24 57.5q0 32 24 55.5t57 23.5zM257 887q34 0 57 -23.5t23 -56.5
q0 -34 -23 -57t-56 -23q-34 0 -57.5 23.5t-23.5 57.5q0 33 23 56t57 23z" />
    <glyph glyph-name="Zacute" unicode="&#x179;" horiz-adv-x="631" 
d="M298 147h299l-18 -147h-577l362 520h-263l18 147h536zM383 898h165l-132 -171h-113z" />
    <glyph glyph-name="zacute" unicode="&#x17a;" horiz-adv-x="559" 
d="M293 127h216l-21 -127h-496l276 320h-195l21 127h472zM333 698h165l-132 -171h-113z" />
    <glyph glyph-name="Zdotaccent" unicode="&#x17b;" horiz-adv-x="631" 
d="M298 147h299l-18 -147h-577l362 520h-263l18 147h536zM281 811q0 38 26.5 64.5t64.5 26.5t64.5 -26.5t26.5 -64.5t-26.5 -64.5t-64.5 -26.5t-64.5 26.5t-26.5 64.5z" />
    <glyph glyph-name="zdotaccent" unicode="&#x17c;" horiz-adv-x="559" 
d="M293 127h216l-21 -127h-496l276 320h-195l21 127h472zM235 611q0 38 26.5 64.5t64.5 26.5t64.5 -26.5t26.5 -64.5t-26.5 -64.5t-64.5 -26.5t-64.5 26.5t-26.5 64.5z" />
    <glyph glyph-name="Zcaron" unicode="&#x17d;" horiz-adv-x="631" 
d="M298 147h299l-18 -147h-577l362 520h-263l18 147h536zM304 902l88 -66l106 66l67 -72l-184 -119l-157 122z" />
    <glyph glyph-name="zcaron" unicode="&#x17e;" horiz-adv-x="559" 
d="M293 127h216l-21 -127h-496l276 320h-195l21 127h472zM263 699l76 -73l103 75l66 -72l-183 -130l-144 133z" />
    <glyph glyph-name="uni018F" unicode="&#x18f;" horiz-adv-x="783" 
d="M263 442l-175 35q45 96 131 149q86 54 205 54q154 0 242 -84q90 -86 90 -227q0 -88 -31 -164t-84 -125q-99 -93 -255 -93q-149 0 -238 88q-56 55 -81 137.5t-9 169.5h523q-7 62 -45 98q-43 40 -125 40q-53 0 -91 -22q-36 -20 -57 -56zM559 258h-335q6 -49 43 -82
q43 -39 120 -39q67 0 113 33q42 32 59 88z" />
    <glyph glyph-name="florin" unicode="&#x192;" horiz-adv-x="600" 
d="M181 113l60 238h-76l23 96h78l29 111q23 85 67 128q55 54 149 54q61 0 107 -25l-36 -139q-29 22 -59 22q-31 0 -49 -18q-15 -15 -29 -68l-17 -65h97l-25 -96h-97l-64 -257q-38 -158 -99 -216q-68 -66 -197 -66q-48 0 -87 9l37 146q23 -9 52 -9q47 0 75 22q35 28 61 133z
" />
    <glyph glyph-name="uni01CF" unicode="&#x1cf;" horiz-adv-x="309" 
d="M124 667h169l-82 -667h-169zM139 902l88 -66l106 66l67 -72l-184 -119l-157 122z" />
    <glyph glyph-name="uni01D0" unicode="&#x1d0;" horiz-adv-x="285" 
d="M87 447h165l-55 -447h-165zM116 699l76 -73l103 75l66 -72l-183 -130l-144 133z" />
    <glyph glyph-name="uni01DD" unicode="&#x1dd;" horiz-adv-x="578" 
d="M36 257h338q3 43 -24 69q-19 18 -59 18q-30 0 -50 -14q-15 -11 -26 -32l-154 38q28 56 86 89q62 35 151 35q116 0 180 -62t64 -166q0 -107 -67 -176q-68 -69 -188 -69q-116 0 -183 66q-37 36 -55 89.5t-13 114.5zM363 164h-164q2 -32 20 -50q19 -19 56 -19q44 0 66 22
q19 17 22 47z" />
    <glyph glyph-name="Gcaron" unicode="&#x1e6;" horiz-adv-x="752" 
d="M389 237l16 134h321q-3 -108 -33 -185q-35 -93 -118.5 -146t-192.5 -53q-147 0 -239.5 91.5t-92.5 236.5q0 158 103.5 261.5t261.5 103.5q127 0 213 -72q32 -27 49 -51.5t37 -71.5l-147 -57q-49 109 -156 109q-80 0 -133.5 -62.5t-53.5 -156.5q0 -81 49 -133t126 -52
q55 0 94.5 28.5t50.5 75.5h-155zM343 902l88 -66l106 66l67 -72l-184 -119l-157 122z" />
    <glyph glyph-name="gcaron" unicode="&#x1e7;" horiz-adv-x="608" 
d="M411 447h164l-49 -392q-11 -90 -27.5 -140t-47.5 -81q-64 -63 -199 -63q-118 0 -176 54q-28 25 -42.5 53t-22.5 72h157q5 -23 27 -37t57 -14q47 0 71 24.5t31 80.5l5 42q-36 -34 -64 -46.5t-67 -12.5q-91 0 -144 60t-53 162q0 110 63 180.5t162 70.5q48 0 83 -17.5
t69 -60.5zM289 117q44 0 70 32.5t26 86.5q0 44 -23.5 69t-63.5 25q-44 0 -71.5 -32t-27.5 -82q0 -45 24.5 -72t65.5 -27zM273 699l76 -73l103 75l66 -72l-183 -130l-144 133z" />
    <glyph glyph-name="AEacute" unicode="&#x1fc;" horiz-adv-x="923" 
d="M311 667h417l37 -147h-212l31 -113h203l37 -147h-201l30 -113h206l36 -147h-373l-28 120h-274l-56 -120h-179zM360 421l-78 -168h182l-44 178q-11 47 -18 93q-28 -72 -42 -103zM519 898h165l-132 -171h-113z" />
    <glyph glyph-name="aeacute" unicode="&#x1fd;" horiz-adv-x="863" 
d="M827 197h-334v-5q0 -42 24 -66q23 -23 61 -23q56 0 76 40h159q-16 -71 -77 -113q-64 -43 -157 -43q-66 0 -108 16q-39 15 -64 45q-38 -32 -85 -46q-50 -15 -107 -15q-95 0 -145 46q-42 39 -42 96q0 60 37 97q50 50 147 50q75 0 131 -42q3 15 3 30q0 46 -23 68
q-22 21 -71 21q-61 0 -141 -33l8 117q95 23 161 23q51 0 93 -13q43 -14 71 -45q25 25 64 41q42 17 100 17q95 0 149 -49q70 -63 70 -199v-15zM246 176q-30 0 -50 -12t-20 -32t18 -32q22 -15 57 -15q31 0 51 14q18 13 18 32q0 20 -23 34q-20 11 -51 11zM508 290h169
q-2 32 -28 51q-20 15 -54 15q-38 0 -61 -19q-20 -17 -26 -47zM489 698h165l-132 -171h-113z" />
    <glyph glyph-name="Scommaaccent" unicode="&#x218;" horiz-adv-x="529" 
d="M335 680q100 0 194 -61l-74 -128q-65 49 -117 49q-35 0 -55 -15.5t-20 -42.5q0 -24 17 -40t68 -40q83 -39 115.5 -80t32.5 -107q0 -100 -71.5 -164t-183.5 -64q-60 0 -109 16t-116 57l76 128q80 -55 141 -55q40 0 64.5 18.5t24.5 49.5q0 22 -15.5 37.5t-62.5 38.5
q-89 45 -121.5 85.5t-32.5 107.5q0 91 69.5 150.5t175.5 59.5zM180 -50l150 -16l-120 -194l-100 12z" />
    <glyph glyph-name="scommaaccent" unicode="&#x219;" horiz-adv-x="470" 
d="M273 462q78 0 166 -46l-39 -113q-62 38 -109 38q-57 0 -57 -27q0 -15 26 -22l54 -14q61 -16 90 -46.5t29 -78.5q0 -76 -56.5 -121t-151.5 -45q-56 0 -102 15.5t-104 52.5l61 108q48 -30 76.5 -41t62.5 -11q61 0 61 31q0 17 -25 24l-54 12q-63 15 -91.5 46t-28.5 84
q0 69 52.5 111.5t139.5 42.5zM160 -50l150 -16l-120 -184l-100 12z" />
    <glyph glyph-name="Tcommaaccent" unicode="&#x21a;" horiz-adv-x="465" 
d="M496 520h-142l-65 -520h-168l64 520h-142l18 147h453zM140 -50l150 -16l-120 -194l-100 12z" />
    <glyph glyph-name="tcommaaccent" unicode="&#x21b;" horiz-adv-x="333" 
d="M344 320h-88l-40 -320h-164l39 320h-70l15 127h71l17 147h165l-18 -147h88zM70 -50l150 -16l-120 -184l-100 12z" />
    <glyph glyph-name="uni0228" unicode="&#x228;" horiz-adv-x="483" 
d="M124 667h365l-18 -147h-196l-14 -111h190l-18 -146h-190l-14 -116h204l-18 -147h-373zM219 -46l112 -44l-136 -146l-92 40z" />
    <glyph glyph-name="uni0229" unicode="&#x229;" horiz-adv-x="561" 
d="M525 190h-334q0 -55 23 -76q17 -17 51 -17q25 0 42 12q16 11 22 30h180q-16 -48 -49 -81q-69 -71 -194 -71q-107 0 -171 59q-61 59 -61 158q0 114 73 185t191 71q107 0 169 -62q60 -60 60 -170q0 -14 -2 -38zM202 283h156q-2 33 -23 53q-20 18 -52 18q-35 0 -57 -22
q-18 -18 -24 -49zM259 -46l106 -44l-136 -146l-84 40z" />
    <glyph glyph-name="uni0237" unicode="&#x237;" horiz-adv-x="276" 
d="M85 447h165l-84 -676h-164z" />
    <glyph glyph-name="uni0259" unicode="&#x259;" horiz-adv-x="578" 
d="M36 257h338q3 43 -24 69q-19 18 -59 18q-30 0 -50 -14q-15 -11 -26 -32l-154 38q28 56 86 89q62 35 151 35q116 0 180 -62t64 -166q0 -107 -67 -176q-68 -69 -188 -69q-116 0 -183 66q-37 36 -55 89.5t-13 114.5zM363 164h-164q2 -32 20 -50q19 -19 56 -19q44 0 66 22
q19 17 22 47z" />
    <glyph glyph-name="afii57929" unicode="&#x2bc;" 
d="M220 700l150 -26l-140 -202l-100 18z" />
    <glyph glyph-name="circumflex" unicode="&#x2c6;" 
d="M306 574l-109 -75l-62 74l192 128l129 -133l-77 -69z" />
    <glyph glyph-name="caron" unicode="&#x2c7;" 
d="M223 699l76 -73l103 75l66 -72l-183 -130l-144 133z" />
    <glyph glyph-name="uni02C9" unicode="&#x2c9;" 
d="M83 539l12 98h396l-12 -98h-396z" />
    <glyph glyph-name="breve" unicode="&#x2d8;" 
d="M131 661q0 2 0.5 8.5t0.5 11.5h99q4 -62 65 -62q60 0 81 62h102q-13 -74 -60.5 -114t-123.5 -40q-72 0 -118 37.5t-46 96.5z" />
    <glyph glyph-name="dotaccent" unicode="&#x2d9;" 
d="M206 611q0 38 26.5 64.5t64.5 26.5t64.5 -26.5t26.5 -64.5t-26.5 -64.5t-64.5 -26.5t-64.5 26.5t-26.5 64.5z" />
    <glyph glyph-name="ring" unicode="&#x2da;" 
d="M302 527q-64 0 -99.5 26t-35.5 73q0 45 36 71.5t97 26.5q60 0 95 -26.5t35 -72.5q0 -45 -34.5 -71.5t-93.5 -26.5zM299 662q-50 0 -50 -37q0 -17 13.5 -27t35.5 -10q51 0 51 37t-50 37z" />
    <glyph glyph-name="ogonek" unicode="&#x2db;" 
d="M322 -89l-32 -86q-31 -18 -71 -18q-35 0 -58 23t-23 56q0 42 36 78q19 19 46 36h73q-14 -10 -38 -34q-20 -23 -20 -39t10 -25q9 -9 25 -9q20 0 52 18z" />
    <glyph glyph-name="tilde" unicode="&#x2dc;" 
d="M420 671l79 -46q-23 -44 -52 -69q-35 -31 -77 -31q-27 0 -66 15l-36 14q-41 15 -48 15q-33 0 -47 -42l-78 46q18 42 48 68q35 30 85 30q33 0 68 -14l29 -12q46 -18 50 -18q29 0 45 44z" />
    <glyph glyph-name="hungarumlaut" unicode="&#x2dd;" 
d="M188 698h151l-117 -171h-100zM388 698h151l-117 -171h-99z" />
    <glyph glyph-name="acutecomb" unicode="&#x301;" horiz-adv-x="2" 
d="M-273 698h165l-132 -171h-113z" />
    <glyph glyph-name="uni0394" unicode="&#x394;" horiz-adv-x="667" 
d="M622 0h-634l245 667h141zM304 508l-130 -390h260z" />
    <glyph glyph-name="uni0394" unicode="&#x2206;" horiz-adv-x="667" 
d="M622 0h-634l245 667h141zM304 508l-130 -390h260z" />
    <glyph glyph-name="uni03A9" unicode="&#x3a9;" horiz-adv-x="667" 
d="M294 0h-271v117h136q-68 43 -99 94q-37 65 -37 155q0 137 86.5 227t218.5 90t218.5 -90t86.5 -227q0 -122 -68 -196q-22 -24 -68 -53h136v-117h-270v104q37 21 59 42t39 50q36 63 36 156q0 94 -47.5 154t-121.5 60q-73 0 -121 -60.5t-48 -153.5q0 -130 69 -200
q28 -28 66 -48v-104z" />
    <glyph glyph-name="uni03A9" unicode="&#x2126;" horiz-adv-x="667" 
d="M294 0h-271v117h136q-68 43 -99 94q-37 65 -37 155q0 137 86.5 227t218.5 90t218.5 -90t86.5 -227q0 -122 -68 -196q-22 -24 -68 -53h136v-117h-270v104q37 21 59 42t39 50q36 63 36 156q0 94 -47.5 154t-121.5 60q-73 0 -121 -60.5t-48 -153.5q0 -130 69 -200
q28 -28 66 -48v-104z" />
    <glyph glyph-name="pi" unicode="&#x3c0;" horiz-adv-x="683" 
d="M298 0h-160v321h-76v126h607v-126h-76v-321h-160v321h-135v-321z" />
    <glyph glyph-name="afii10023" unicode="&#x401;" horiz-adv-x="487" 
d="M124 667h365l-18 -147h-196l-14 -111h190l-18 -146h-190l-14 -116h204l-18 -147h-373zM341 800q0 35 24 59t59 24t59 -24t24 -59t-24 -59t-59 -24t-59 24t-24 59zM129 800q0 35 24 59t59 24t59 -24t24 -59t-24 -59t-59 -24t-59 24t-24 59z" />
    <glyph glyph-name="afii10051" unicode="&#x402;" horiz-adv-x="736" 
d="M136 0l64 520h-150l18 147h532l-18 -147h-213l-15 -127q58 23 122 23q110 0 168 -50q62 -54 62 -159t-71 -164q-60 -50 -177 -50q-45 0 -85 8l16 131q32 -7 56 -7q43 0 62 18q21 21 21 57q0 31 -20 51q-21 19 -62 19q-58 0 -110 -23l-31 -247h-169z" />
    <glyph glyph-name="afii10052" unicode="&#x403;" horiz-adv-x="486" 
d="M124 667h392l-18 -147h-223l-64 -520h-169zM343 898h165l-132 -171h-113z" />
    <glyph glyph-name="afii10053" unicode="&#x404;" horiz-adv-x="646" 
d="M567 207l-22 -174q-78 -46 -176 -46q-141 0 -226 83q-93 89 -93 231q0 80 29.5 158.5t86.5 130.5q98 90 255 90q110 0 198 -53l-22 -174q-71 67 -175 67q-64 0 -110 -30t-63 -83h248l-16 -142h-250q12 -55 56 -87q42 -31 109 -31q104 0 171 60z" />
    <glyph glyph-name="afii10054" unicode="&#x405;" horiz-adv-x="529" 
d="M335 680q100 0 194 -61l-74 -128q-65 49 -117 49q-35 0 -55 -15.5t-20 -42.5q0 -24 17 -40t68 -40q83 -39 115.5 -80t32.5 -107q0 -100 -71.5 -164t-183.5 -64q-60 0 -109 16t-116 57l76 128q80 -55 141 -55q40 0 64.5 18.5t24.5 49.5q0 22 -15.5 37.5t-62.5 38.5
q-89 45 -121.5 85.5t-32.5 107.5q0 91 69.5 150.5t175.5 59.5z" />
    <glyph glyph-name="afii10055" unicode="&#x406;" horiz-adv-x="309" 
d="M124 667h169l-82 -667h-169z" />
    <glyph glyph-name="afii10056" unicode="&#x407;" horiz-adv-x="350" 
d="M142 667h173l-82 -667h-173zM342 897q28 0 45 -16q25 -23 25 -58q0 -47 -34 -72q-20 -16 -47 -16q-28 0 -45 16q-24 21 -24 56q0 49 33 74q20 16 47 16zM164 897q28 0 45 -16q25 -23 25 -58q0 -47 -34 -72q-20 -16 -47 -16q-28 0 -45 16q-24 21 -24 56q0 49 33 74
q20 16 47 16z" />
    <glyph glyph-name="afii10057" unicode="&#x408;" horiz-adv-x="481" 
d="M296 667h169l-57 -459q-7 -55 -20.5 -94.5t-47.5 -73.5q-53 -53 -146 -53q-81 0 -132 37q-42 30 -69 82l125 97q6 -28 21 -45q14 -17 42 -17q22 0 37 16q17 18 25 79z" />
    <glyph glyph-name="afii10058" unicode="&#x409;" horiz-adv-x="1006" 
d="M444 0l64 520h-168l-30 -241q-19 -152 -89 -222q-39 -40 -82.5 -52t-97.5 -12q-38 0 -66 7l20 160q21 -7 39 -7q35 0 60 20q38 31 51 126l45 368h505l-32 -262h94q117 0 171 -54q48 -46 48 -124q0 -99 -61 -159q-69 -68 -233 -68h-73h-165zM630 133h57q60 0 83 15
q28 18 28 66q0 31 -18 45q-16 13 -73 13h-60z" />
    <glyph glyph-name="afii10059" unicode="&#x40a;" horiz-adv-x="1011" 
d="M447 0l33 271h-236l-34 -271h-168l82 667h169l-31 -249h236l31 249h169l-30 -249h94q117 0 171 -54q48 -47 48 -126q0 -107 -60 -167q-70 -71 -236 -71h-238zM633 133h57q56 0 81 16q32 22 32 73q0 37 -25 52q-17 11 -66 11h-60z" />
    <glyph glyph-name="afii10060" unicode="&#x40b;" horiz-adv-x="767" 
d="M697 0h-169l21 165q8 66 -24 87q-25 17 -78 17q-45 0 -108 -18l-31 -251h-169l64 520h-153l18 147h537l-18 -147h-215l-15 -126q70 22 153 22q99 0 153 -35q33 -21 49 -52t14.5 -60t-3.5 -60z" />
    <glyph glyph-name="afii10061" unicode="&#x40c;" horiz-adv-x="672" 
d="M124 667h169l-36 -292l220 292h194l-255 -340l228 -327h-203l-143 213q-24 36 -50 88l-37 -301h-169zM404 898h165l-132 -171h-113z" />
    <glyph glyph-name="afii10062" unicode="&#x40e;" horiz-adv-x="642" 
d="M45 667h182l126 -299l147 299h195l-382 -667h-183l118 200zM470 898l108 -48q-22 -61 -77 -93q-48 -29 -128 -29q-86 0 -133 30q-51 32 -72 92l115 48q7 -31 28 -47q22 -19 65 -19q36 0 61 19q23 18 33 47z" />
    <glyph glyph-name="afii10145" unicode="&#x40f;" horiz-adv-x="708" 
d="M42 0l82 667h169l-64 -520h230l64 520h169l-81 -667h-208l-21 -166h-152l21 166h-209z" />
    <glyph glyph-name="afii10017" unicode="&#x410;" horiz-adv-x="695" 
d="M462 112h-238l-51 -112h-188l331 667h190l161 -667h-177zM353 393l-67 -149h144l-28 127q-11 53 -15 77q-3 17 -4 24q-11 -36 -30 -79z" />
    <glyph glyph-name="afii10018" unicode="&#x411;" horiz-adv-x="605" 
d="M42 0l81 667h433l-18 -147h-264l-15 -118h90q119 0 172 -57q44 -46 44 -119q0 -100 -60 -158q-69 -68 -233 -68h-230zM227 133h54q55 0 81 17q30 20 30 62q0 29 -16 44q-18 16 -77 16h-55z" />
    <glyph glyph-name="afii10019" unicode="&#x412;" horiz-adv-x="603" 
d="M42 0l82 667h213q64 0 99 -7.5t59 -26.5q53 -41 53 -121q0 -60 -30 -104q-26 -38 -79 -61q53 -13 79 -35q45 -39 45 -111q0 -61 -34.5 -111.5t-92.5 -72.5q-43 -17 -129 -17h-265zM307 534h-31l-16 -132h24q55 0 79.5 17.5t24.5 56.5q0 34 -17 46t-64 12zM295 277h-51
l-17 -144h46q62 0 88.5 19t26.5 62q0 37 -19 50t-74 13z" />
    <glyph glyph-name="afii10020" unicode="&#x413;" horiz-adv-x="486" 
d="M124 667h392l-18 -147h-223l-64 -520h-169z" />
    <glyph glyph-name="afii10021" unicode="&#x414;" horiz-adv-x="749" 
d="M215 667h494l-65 -520h80l-35 -285h-152l18 138h-404l-19 -136h-152l36 284q52 9 92 48q32 31 47 72t23 106zM358 520l-18 -156q-9 -81 -31 -131q-25 -54 -69 -86h236l44 373h-162z" />
    <glyph glyph-name="afii10022" unicode="&#x415;" horiz-adv-x="483" 
d="M124 667h365l-18 -147h-196l-14 -111h190l-18 -146h-190l-14 -116h204l-18 -147h-373z" />
    <glyph glyph-name="afii10024" unicode="&#x416;" horiz-adv-x="987" 
d="M373 0l36 293l-216 -293h-218l282 346l-180 321h200l142 -290l36 290h169l-36 -290l214 290h200l-257 -335l195 -332h-218l-144 293l-36 -293h-169z" />
    <glyph glyph-name="afii10025" unicode="&#x417;" horiz-adv-x="582" 
d="M156 484l-57 124q52 32 95 48q65 24 137 24q115 0 172 -57q44 -44 44 -113q0 -59 -35 -108q-31 -41 -77 -55l-1 -3q40 -10 69 -37q38 -37 38 -97q0 -89 -58 -149q-70 -74 -214 -74q-82 0 -151 32q-52 24 -113 72l91 122q40 -36 71 -54q46 -26 99 -26q47 0 74 24
q21 19 21 50q0 34 -31 50q-25 13 -85 13h-54l17 134h43q75 0 104 24q25 20 25 53q0 27 -20 43t-66 16q-43 0 -77 -17q-26 -12 -61 -39z" />
    <glyph glyph-name="afii10026" unicode="&#x418;" horiz-adv-x="731" 
d="M124 667h169l-51 -412l309 412h164l-82 -667h-169l51 412l-311 -412h-162z" />
    <glyph glyph-name="afii10027" unicode="&#x419;" horiz-adv-x="731" 
d="M124 667h169l-51 -412l309 412h164l-82 -667h-169l51 412l-311 -412h-162zM536 898l108 -48q-22 -61 -77 -93q-48 -29 -128 -29q-86 0 -133 30q-51 32 -72 92l115 48q7 -31 28 -47q22 -19 65 -19q36 0 61 19q23 18 33 47z" />
    <glyph glyph-name="afii10028" unicode="&#x41a;" horiz-adv-x="672" 
d="M124 667h169l-36 -292l220 292h194l-255 -340l228 -327h-203l-143 213q-24 36 -50 88l-37 -301h-169z" />
    <glyph glyph-name="afii10029" unicode="&#x41b;" horiz-adv-x="711" 
d="M190 667h505l-82 -667h-169l64 520h-168l-30 -241q-19 -152 -89 -222q-39 -40 -82.5 -52t-97.5 -12q-38 0 -66 7l20 160q21 -7 39 -7q35 0 60 20q38 31 51 126z" />
    <glyph glyph-name="afii10030" unicode="&#x41c;" horiz-adv-x="939" 
d="M675 667h175l21 -667h-169l-8 299v21q0 46 8 111q-21 -57 -47 -110l-164 -321h-89l-57 258q-17 75 -28 184q-18 -94 -35 -153l-86 -289h-174l211 667h167l50 -225q18 -76 30 -175q20 57 38 91z" />
    <glyph glyph-name="afii10031" unicode="&#x41d;" horiz-adv-x="724" 
d="M539 667h169l-82 -667h-169l33 273h-245l-34 -273h-169l82 667h169l-30 -247h245z" />
    <glyph glyph-name="afii10032" unicode="&#x41e;" horiz-adv-x="805" 
d="M429 680q158 0 257 -96q92 -91 92 -230q0 -163 -100 -266q-99 -101 -262 -101q-173 0 -274 103q-90 92 -90 234q0 149 95 247q106 109 282 109zM422 520q-87 0 -141 -54q-56 -56 -56 -136q0 -76 45 -126q51 -57 142 -57q90 0 140 53q52 54 52 138q0 79 -46 127
q-53 55 -136 55z" />
    <glyph glyph-name="afii10033" unicode="&#x41f;" horiz-adv-x="704" 
d="M606 0h-169l68 519h-227l-67 -519h-169l82 667h564z" />
    <glyph glyph-name="afii10034" unicode="&#x420;" horiz-adv-x="577" 
d="M42 0l82 667h223q134 0 194 -59q56 -55 56 -153q0 -100 -52 -157q-71 -77 -232 -77h-75l-27 -221h-169zM323 527h-47l-20 -166h53q66 0 94 28q21 21 21 59t-19 57q-22 22 -82 22z" />
    <glyph glyph-name="afii10035" unicode="&#x421;" horiz-adv-x="607" 
d="M414 680q103 0 202 -56l-20 -165q-73 61 -163 61q-92 0 -151 -54.5t-59 -139.5q0 -80 52 -129.5t135 -49.5q78 0 153 42l-21 -170q-90 -32 -157 -32q-148 0 -241.5 92.5t-93.5 238.5q0 152 105.5 257t258.5 105z" />
    <glyph glyph-name="afii10036" unicode="&#x422;" horiz-adv-x="465" 
d="M496 520h-142l-65 -520h-168l64 520h-142l18 147h453z" />
    <glyph glyph-name="afii10037" unicode="&#x423;" horiz-adv-x="642" 
d="M45 667h182l126 -299l147 299h195l-382 -667h-183l118 200z" />
    <glyph glyph-name="afii10038" unicode="&#x424;" horiz-adv-x="835" 
d="M302 0l11 93h-4q-130 0 -204 76q-65 67 -65 171q0 126 82 205q87 82 257 82l10 97h169l-10 -97q56 -1 113.5 -22t94.5 -58q64 -66 64 -172q0 -129 -78 -205q-48 -47 -111 -62t-143 -15h-6l-11 -93h-169zM521 493l-33 -266h9q66 0 106 35q47 40 47 116q0 55 -31 84
q-33 31 -94 31h-4zM374 493h-8q-76 0 -117 -42q-39 -40 -39 -106q0 -57 33 -88q32 -30 89 -30h9z" />
    <glyph glyph-name="afii10039" unicode="&#x425;" horiz-adv-x="687" 
d="M724 667l-263 -326l206 -341h-194l-61 100q-32 54 -62 126q-30 -52 -65 -96l-104 -130h-210l291 351l-191 316h196l44 -78q32 -57 61 -123q46 71 67 97l81 104h204z" />
    <glyph glyph-name="afii10040" unicode="&#x426;" horiz-adv-x="738" 
d="M42 0l82 667h169l-64 -520h230l64 520h169l-64 -520h94l-36 -297h-152l18 150h-510z" />
    <glyph glyph-name="afii10041" unicode="&#x427;" horiz-adv-x="652" 
d="M385 0l32 262q-59 -10 -114 -10q-115 0 -172 40q-61 43 -61 133q0 9 10 94l18 148h169l-18 -140q-5 -36 -5 -50q0 -78 112 -78q43 0 79 7l32 261h169l-82 -667h-169z" />
    <glyph glyph-name="afii10042" unicode="&#x428;" horiz-adv-x="977" 
d="M42 0l82 667h169l-64 -520h165l64 520h169l-64 -520h165l64 520h169l-82 -667h-837z" />
    <glyph glyph-name="afii10043" unicode="&#x429;" horiz-adv-x="1013" 
d="M42 0l82 667h169l-64 -520h165l64 520h169l-64 -520h165l64 520h169l-64 -520h100l-36 -297h-152l18 150h-785z" />
    <glyph glyph-name="afii10044" unicode="&#x42a;" horiz-adv-x="678" 
d="M116 0l67 520h-140l18 147h306l-32 -262h94q117 0 171 -54q48 -46 48 -124q0 -99 -61 -159q-69 -68 -233 -68h-238zM302 133h57q60 0 83 15q28 20 28 66q0 28 -14 42q-16 16 -77 16h-60z" />
    <glyph glyph-name="afii10045" unicode="&#x42b;" horiz-adv-x="861" 
d="M594 0l82 667h169l-82 -667h-169zM42 0l82 667h169l-32 -262h87q115 0 169 -54q48 -48 48 -125q0 -100 -58 -158q-68 -68 -234 -68h-231zM228 133h57q61 0 83 15q28 20 28 66q0 28 -14 42q-16 16 -77 16h-60z" />
    <glyph glyph-name="afii10046" unicode="&#x42c;" horiz-adv-x="604" 
d="M42 0l82 667h169l-32 -262h94q117 0 171 -54q48 -46 48 -124q0 -99 -61 -159q-69 -68 -233 -68h-238zM228 133h57q61 0 83 15q28 20 28 66q0 28 -14 42q-16 16 -77 16h-60z" />
    <glyph glyph-name="afii10047" unicode="&#x42d;" horiz-adv-x="625" 
d="M16 52l20 166q38 -34 77 -53q47 -22 107 -22q70 0 117 30q50 32 67 92h-253l18 142h246q-16 56 -65 87q-44 28 -111 28q-54 0 -102 -20q-36 -16 -72 -43l22 173q88 48 187 48q144 0 233 -87q91 -89 91 -237q0 -165 -103 -270q-96 -99 -256 -99q-122 0 -223 65z" />
    <glyph glyph-name="afii10048" unicode="&#x42e;" horiz-adv-x="1095" 
d="M263 424h98q33 124 134 193q93 63 222 63q159 0 259 -96q92 -91 92 -230q0 -163 -100 -266q-99 -101 -260 -101q-68 0 -136.5 20t-116.5 61q-91 78 -104 209h-106l-34 -277h-169l82 667h169zM711 520q-84 0 -140 -54q-56 -56 -56 -136q0 -76 45 -126q51 -57 142 -57
q90 0 140 53q52 54 52 138q0 79 -46 127q-53 55 -137 55z" />
    <glyph glyph-name="afii10049" unicode="&#x42f;" horiz-adv-x="647" 
d="M14 0l218 255q-53 11 -86 49q-39 44 -39 117q0 105 69 174q43 43 92 57.5t111 14.5h252l-82 -667h-169l28 227h-17l-171 -227h-206zM424 361l22 172h-50q-55 0 -82 -25q-28 -26 -28 -73q0 -38 27 -59q22 -15 68 -15h43z" />
    <glyph glyph-name="afii10065" unicode="&#x430;" horiz-adv-x="612" 
d="M414 447h165l-55 -447h-165l12 49q-38 -35 -72 -48.5t-80 -13.5q-85 0 -135.5 57t-50.5 154q0 113 67 187.5t168 74.5q47 0 78 -13.5t67 -50.5zM291 116q45 0 74.5 34.5t29.5 86.5q0 43 -24 68t-64 25q-45 0 -75.5 -34.5t-30.5 -85.5q0 -43 24.5 -68.5t65.5 -25.5z" />
    <glyph glyph-name="afii10066" unicode="&#x431;" horiz-adv-x="599" 
d="M183 378h5q49 70 154 70q117 0 181 -66q52 -54 52 -140q0 -108 -69 -179q-75 -76 -208 -76q-126 0 -193 70q-65 67 -65 190q0 86 27 185q29 107 88 163q49 46 134 70q38 10 76 16.5t55 12.5q38 14 47 48h142q-13 -70 -60 -117q-37 -37 -112 -61q-17 -5 -58.5 -16.5
t-61.5 -18.5q-60 -20 -92 -59q-30 -36 -42 -92zM298 116q47 0 75 29q34 34 34 87q0 43 -27 68q-24 22 -63 22q-43 0 -71 -26q-35 -33 -35 -92q0 -44 24 -66q22 -22 63 -22z" />
    <glyph glyph-name="afii10067" unicode="&#x432;" horiz-adv-x="538" 
d="M87 447h263q72 0 106 -24q41 -30 41 -82q0 -49 -31 -80q-21 -21 -49 -29v-2q39 -4 62 -27q29 -26 29 -69q0 -56 -36 -92q-43 -42 -133 -42h-146h-161zM230 272h47q32 0 45 9q16 11 16 34q0 19 -14 27q-10 5 -42 5h-42zM209 100h61q35 0 50 12q14 10 14 35q0 21 -16 30
q-11 6 -48 6h-51z" />
    <glyph glyph-name="afii10068" unicode="&#x433;" horiz-adv-x="414" 
d="M32 0l57 447h325l-17 -127h-161l-39 -320h-165z" />
    <glyph glyph-name="afii10069" unicode="&#x434;" horiz-adv-x="620" 
d="M154 447h418l-41 -327h64l-29 -250h-140l16 130h-305l-17 -130h-140l31 250q45 5 75 35q35 33 45 112zM371 120l27 207h-108l-8 -69q-6 -51 -20 -82q-16 -35 -46 -56h155z" />
    <glyph glyph-name="afii10070" unicode="&#x435;" horiz-adv-x="561" 
d="M525 190h-334q0 -55 23 -76q17 -17 51 -17q25 0 42 12q16 11 22 30h180q-16 -48 -49 -81q-69 -71 -194 -71q-107 0 -171 59q-61 59 -61 158q0 114 73 185t191 71q107 0 169 -62q60 -60 60 -170q0 -14 -2 -38zM202 283h156q-2 33 -23 53q-20 18 -52 18q-35 0 -57 -22
q-18 -18 -24 -49z" />
    <glyph glyph-name="afii10072" unicode="&#x436;" horiz-adv-x="799" 
d="M291 0l24 194l-147 -194h-193l200 239l-128 208h179l97 -187l23 187h160l-23 -187l144 187h187l-186 -219l142 -228h-194l-101 194l-24 -194h-160z" />
    <glyph glyph-name="afii10073" unicode="&#x437;" horiz-adv-x="488" 
d="M91 298l-38 112q41 23 88 36q57 16 120 16q86 0 133 -28q59 -34 59 -100q0 -43 -29 -72q-23 -21 -54 -30v-2q33 -7 52 -26q27 -27 27 -67q0 -73 -63 -114q-54 -36 -155 -36q-74 0 -137 22q-51 18 -92 46l58 110q37 -27 67 -38q39 -16 83 -16q32 0 47 7q22 9 22 28
q0 22 -27 26q-20 4 -50 4h-46l13 104h41q39 0 56 5q27 7 27 29q0 17 -20 24q-14 6 -46 6q-36 0 -75 -14q-37 -15 -61 -32z" />
    <glyph glyph-name="afii10074" unicode="&#x438;" horiz-adv-x="598" 
d="M87 447h165l-29 -230l197 230h144l-55 -447h-165l29 236l-195 -236h-146z" />
    <glyph glyph-name="afii10075" unicode="&#x439;" horiz-adv-x="598" 
d="M87 447h165l-29 -230l197 230h144l-55 -447h-165l29 236l-195 -236h-146zM423 677l109 -39q-16 -56 -66 -90q-47 -30 -122 -30q-84 0 -128 31q-46 32 -62 89l115 39q6 -30 21 -45q17 -18 52 -18q39 0 58 20q14 14 23 43z" />
    <glyph glyph-name="afii10076" unicode="&#x43a;" horiz-adv-x="570" 
d="M86 447h165l-23 -190l147 190h200l-199 -227l172 -220h-201l-70 94q-39 53 -58 86l-22 -180h-165z" />
    <glyph glyph-name="afii10077" unicode="&#x43b;" horiz-adv-x="607" 
d="M573 447l-55 -447h-165l40 320h-110l-20 -152q-11 -83 -72 -129q-74 -55 -201 -39l17 133q48 -10 75 14q22 20 29 72l28 228h434z" />
    <glyph glyph-name="afii10078" unicode="&#x43c;" horiz-adv-x="690" 
d="M-3 0l138 447h144l49 -177q15 -56 18 -71q12 26 37 74l92 174h144l28 -447h-155l-12 181q-3 57 -3 59q-8 -27 -23 -59l-86 -181h-80l-51 190q-8 29 -11 51q-2 -12 -15 -55l-59 -186h-155z" />
    <glyph glyph-name="afii10079" unicode="&#x43d;" horiz-adv-x="594" 
d="M32 0l55 447h165l-19 -151h143l19 151h165l-55 -447h-165l21 169h-143l-21 -169h-165z" />
    <glyph glyph-name="afii10080" unicode="&#x43e;" horiz-adv-x="603" 
d="M308 460q127 0 197 -70q62 -60 62 -159q0 -101 -65 -168q-74 -76 -199 -76q-130 0 -205 75q-63 63 -63 160t67 162q78 76 206 76zM294 116q43 0 71 29q34 34 34 92q0 47 -27 71q-25 22 -62 22q-43 0 -73 -31q-34 -36 -34 -89q0 -41 25 -68q26 -26 66 -26z" />
    <glyph glyph-name="afii10081" unicode="&#x43f;" horiz-adv-x="584" 
d="M32 0l55 447h463l-55 -447h-165l40 320h-133l-40 -320h-165z" />
    <glyph glyph-name="afii10082" unicode="&#x440;" horiz-adv-x="615" 
d="M85 447h165l-13 -57q43 39 78 54.5t79 15.5q85 0 134.5 -58t49.5 -158q0 -116 -58.5 -186.5t-154.5 -70.5q-98 0 -161 89l-38 -305h-164zM305 116q46 0 75.5 34t29.5 87q0 43 -24 68t-64 25q-46 0 -76 -34.5t-30 -85.5q0 -43 24.5 -68.5t64.5 -25.5z" />
    <glyph glyph-name="afii10083" unicode="&#x441;" horiz-adv-x="423" 
d="M282 460q72 0 135 -31l-17 -139q-44 40 -91 40q-46 0 -76 -33t-30 -84q0 -44 24.5 -70t67.5 -26q41 0 88 34l-17 -140q-72 -24 -118 -24q-94 0 -153.5 62t-59.5 160q0 109 70 180t177 71z" />
    <glyph glyph-name="afii10084" unicode="&#x442;" horiz-adv-x="418" 
d="M97 0l40 320h-122l15 127h408l-16 -127h-122l-39 -320h-164z" />
    <glyph glyph-name="afii10085" unicode="&#x443;" horiz-adv-x="588" 
d="M427 447h188l-418 -676h-185l160 264l-158 412h183l48 -121q23 -57 37 -128q23 50 59 108z" />
    <glyph glyph-name="afii10086" unicode="&#x444;" horiz-adv-x="759" 
d="M404 -229h-164l28 222q-116 3 -176 68q-56 60 -56 149q0 108 72 175q77 72 217 75l26 207h164l-26 -207q113 -5 176 -69q58 -58 58 -150q0 -103 -65 -170q-77 -78 -226 -78zM461 338l-27 -223q58 2 94 36q34 34 34 93q0 42 -25 67q-30 30 -76 27zM323 338q-56 0 -93 -37
q-34 -34 -34 -87q0 -42 25 -69q28 -30 75 -30z" />
    <glyph glyph-name="afii10087" unicode="&#x445;" horiz-adv-x="625" 
d="M630 447l-213 -215l179 -232h-204l-43 60q-27 38 -44 69q-37 -47 -64 -74l-52 -55h-210l230 236l-162 211h206l33 -52q23 -36 35 -63q19 29 31 43l17 20l46 52h215z" />
    <glyph glyph-name="afii10088" unicode="&#x446;" horiz-adv-x="600" 
d="M32 0l55 447h165l-40 -320h134l40 320h165l-40 -320h74l-31 -257h-140l16 130h-398z" />
    <glyph glyph-name="afii10089" unicode="&#x447;" horiz-adv-x="531" 
d="M277 0l19 154q-43 -11 -90 -11q-101 0 -143 42q-41 41 -30 129l16 133h159l-14 -107q-7 -46 13 -60q14 -10 47 -10t57 7l21 170h165l-55 -447h-165z" />
    <glyph glyph-name="afii10090" unicode="&#x448;" horiz-adv-x="852" 
d="M32 0l55 447h165l-40 -320h118l40 320h165l-40 -320h118l40 320h165l-55 -447h-731z" />
    <glyph glyph-name="afii10091" unicode="&#x449;" horiz-adv-x="887" 
d="M87 447h165l-40 -320h118l40 320h165l-40 -320h118l40 320h165l-40 -320h94l-31 -257h-140l16 130h-685z" />
    <glyph glyph-name="afii10092" unicode="&#x44a;" horiz-adv-x="579" 
d="M292 298h90q94 0 136 -41q36 -34 36 -93q0 -72 -43 -115q-49 -49 -136 -49h-285l40 320h-115l15 127h280zM268 104h54q30 0 47 14q15 13 15 37q0 19 -12 29t-58 10h-35z" />
    <glyph glyph-name="afii10093" unicode="&#x44b;" horiz-adv-x="766" 
d="M567 447h165l-55 -447h-165zM234 298h84q93 0 134 -40q38 -36 38 -96q0 -70 -43 -113q-49 -49 -136 -49h-279l54 447h166zM210 104h49q36 0 52 14q15 13 15 38q0 21 -15 30q-11 8 -55 8h-35z" />
    <glyph glyph-name="afii10094" unicode="&#x44c;" horiz-adv-x="521" 
d="M234 298h90q94 0 136 -41q36 -34 36 -93q0 -72 -43 -115q-49 -49 -136 -49h-285l54 447h166zM210 104h54q30 0 47 14q15 13 15 37q0 19 -12 29t-58 10h-35z" />
    <glyph glyph-name="afii10095" unicode="&#x44d;" horiz-adv-x="493" 
d="M25 28l17 137q28 -26 58 -39q33 -15 78 -15q49 0 76 17q26 16 38 47h-171l12 100h165q-14 34 -47 50q-27 13 -67 13q-41 0 -76 -16q-26 -11 -50 -31l17 143q75 26 140 26q116 0 181 -65q61 -61 61 -155q0 -116 -72 -186q-69 -67 -193 -67q-86 0 -167 41z" />
    <glyph glyph-name="afii10096" unicode="&#x44e;" horiz-adv-x="827" 
d="M233 296h50q22 71 81 116q64 48 168 48q127 0 197 -70q62 -60 62 -159q0 -101 -65 -168q-74 -76 -199 -76q-109 0 -175 50q-67 50 -78 132h-56l-21 -169h-165l55 447h165zM518 116q43 0 71 29q34 34 34 92q0 47 -27 71q-25 22 -62 22q-43 0 -73 -31q-34 -36 -34 -89
q0 -41 25 -68q26 -26 66 -26z" />
    <glyph glyph-name="afii10097" unicode="&#x44f;" horiz-adv-x="544" 
d="M10 0l143 160q-38 8 -62 32q-31 31 -31 85q0 76 47 121q50 49 175 49h228l-55 -447h-158l17 142h-11l-113 -142h-180zM326 240l13 103h-50q-36 0 -54 -18q-15 -15 -15 -38q0 -25 17 -36t49 -11h40z" />
    <glyph glyph-name="afii10071" unicode="&#x451;" horiz-adv-x="561" 
d="M525 190h-334q0 -55 23 -76q17 -17 51 -17q25 0 42 12q16 11 22 30h180q-16 -48 -49 -81q-69 -71 -194 -71q-107 0 -171 59q-61 59 -61 158q0 114 73 185t191 71q107 0 169 -62q60 -60 60 -170q0 -14 -2 -38zM202 283h156q-2 33 -23 53q-20 18 -52 18q-35 0 -57 -22
q-18 -18 -24 -49zM113 614q0 35 24.5 59.5t59.5 24.5t59.5 -24.5t24.5 -59.5t-24.5 -59.5t-59.5 -24.5t-59.5 24.5t-24.5 59.5zM325 614q0 35 24.5 59.5t59.5 24.5t59.5 -24.5t24.5 -59.5t-24.5 -59.5t-59.5 -24.5t-59.5 24.5t-24.5 59.5z" />
    <glyph glyph-name="afii10099" unicode="&#x452;" horiz-adv-x="593" 
d="M37 0l61 493h-82l13 110h82l16 126h165l-16 -126h167l-13 -110h-167l-16 -126q73 53 148 53q74 0 111 -45q33 -40 33 -113q0 -30 -6 -76l-24 -192q-17 -132 -65 -179q-47 -45 -135 -45q-38 0 -89 11l16 138q11 -3 30 -3q33 0 50 16q13 13 22 37t9 45l17 143q5 38 5 54
q0 33 -12 51q-14 21 -48 21q-36 0 -55 -20q-22 -22 -31 -91l-21 -172h-165z" />
    <glyph glyph-name="afii10100" unicode="&#x453;" horiz-adv-x="414" 
d="M32 0l57 447h325l-17 -127h-161l-39 -320h-165zM288 698h165l-132 -171h-113z" />
    <glyph glyph-name="afii10101" unicode="&#x454;" horiz-adv-x="475" 
d="M422 153l-16 -134q-64 -32 -143 -32q-108 0 -170 63q-63 63 -63 157q0 113 75 185q72 68 192 68q81 0 158 -39l-17 -142q-23 24 -51 40q-31 17 -70 17t-66 -15q-31 -15 -45 -49h167l-12 -96h-167q10 -31 37 -48q29 -17 75 -17q36 0 68 14q24 10 48 28z" />
    <glyph glyph-name="afii10102" unicode="&#x455;" horiz-adv-x="470" 
d="M273 462q78 0 166 -46l-39 -113q-62 38 -109 38q-57 0 -57 -27q0 -15 26 -22l54 -14q61 -16 90 -46.5t29 -78.5q0 -76 -56.5 -121t-151.5 -45q-56 0 -102 15.5t-104 52.5l61 108q48 -30 76.5 -41t62.5 -11q61 0 61 31q0 17 -25 24l-54 12q-63 15 -91.5 46t-28.5 84
q0 69 52.5 111.5t139.5 42.5z" />
    <glyph glyph-name="afii10103" unicode="&#x456;" horiz-adv-x="271" 
d="M87 447h165l-55 -447h-165zM95 633q0 37 26.5 63.5t63.5 26.5t63.5 -26.5t26.5 -63.5t-26.5 -63.5t-63.5 -26.5t-63.5 26.5t-26.5 63.5z" />
    <glyph glyph-name="afii10104" unicode="&#x457;" horiz-adv-x="350" 
d="M123 447h158l-55 -447h-158zM320 722q28 0 45 -16q25 -23 25 -58q0 -46 -34 -72q-20 -16 -47 -16q-28 0 -45 16q-24 21 -24 56q0 49 33 74q20 16 47 16zM142 722q28 0 45 -16q25 -22 25 -58q0 -46 -34 -72q-20 -16 -47 -16q-28 0 -45 16q-24 21 -24 56q0 49 33 74
q20 16 47 16z" />
    <glyph glyph-name="afii10105" unicode="&#x458;" horiz-adv-x="276" 
d="M85 447h165l-84 -676h-164zM95 633q0 37 26.5 63.5t63.5 26.5t63.5 -26.5t26.5 -63.5t-26.5 -63.5t-63.5 -26.5t-63.5 26.5t-26.5 63.5z" />
    <glyph glyph-name="afii10106" unicode="&#x459;" horiz-adv-x="842" 
d="M555 298h90q94 0 136 -41q36 -34 36 -93q0 -72 -43 -115q-49 -49 -136 -49h-285l39 320h-109l-20 -152q-11 -83 -72 -129q-74 -55 -201 -39l17 133q48 -10 75 14q22 20 29 72l28 228h434zM531 104h54q30 0 47 14q15 13 15 37q0 19 -12 29t-58 10h-35z" />
    <glyph glyph-name="afii10107" unicode="&#x45a;" horiz-adv-x="830" 
d="M543 298h90q94 0 136 -41q36 -34 36 -93q0 -72 -43 -115q-49 -49 -136 -49h-285l23 188h-144l-23 -188h-165l55 447h165l-19 -149h144l18 149h166zM519 104h54q30 0 44 11q17 12 17 35q0 20 -11 28q-12 10 -58 10h-36z" />
    <glyph glyph-name="afii10108" unicode="&#x45b;" horiz-adv-x="593" 
d="M37 0l61 493h-82l13 110h82l16 126h165l-16 -126h167l-13 -110h-167l-16 -126q73 53 148 53q74 0 111 -45q33 -40 33 -113q0 -30 -6 -76l-23 -186h-165l19 157q5 38 5 54q0 33 -12 51q-14 21 -48 21q-36 0 -55 -20q-22 -22 -31 -91l-21 -172h-165z" />
    <glyph glyph-name="afii10109" unicode="&#x45c;" horiz-adv-x="570" 
d="M86 447h165l-23 -190l147 190h200l-199 -227l172 -220h-201l-70 94q-39 53 -58 86l-22 -180h-165zM348 698h165l-132 -171h-113z" />
    <glyph glyph-name="afii10110" unicode="&#x45e;" horiz-adv-x="588" 
d="M427 447h188l-418 -676h-185l160 264l-158 412h183l48 -121q23 -57 37 -128q23 50 59 108zM399 677l109 -39q-16 -56 -66 -90q-47 -30 -122 -30q-84 0 -128 31q-46 32 -62 89l115 39q6 -30 21 -45q17 -18 52 -18q39 0 58 20q14 14 23 43z" />
    <glyph glyph-name="afii10193" unicode="&#x45f;" horiz-adv-x="585" 
d="M32 0l55 447h165l-40 -320h134l40 320h165l-56 -447h-162l-18 -140h-140l19 140h-162z" />
    <glyph glyph-name="afii10146" unicode="&#x462;" horiz-adv-x="677" 
d="M115 0l61 495h-133l14 115h133l14 114h169l-14 -114h191l-14 -115h-191l-11 -90h94q117 0 171 -54q48 -46 48 -123q0 -100 -61 -160q-69 -68 -233 -68h-238zM301 133h57q60 0 83 15q28 18 28 64q0 32 -18 47q-16 13 -73 13h-60z" />
    <glyph glyph-name="afii10194" unicode="&#x463;" horiz-adv-x="573" 
d="M293 353l-7 -59h90q93 0 136 -41q36 -34 36 -93q0 -68 -43 -111q-49 -49 -136 -49h-285l42 353h-111l12 94h111l35 282h166l-35 -282h168l-12 -94h-167zM262 104h54q30 0 47 14q15 13 15 37q0 19 -12 29t-58 10h-35z" />
    <glyph glyph-name="afii10147" unicode="&#x472;" horiz-adv-x="805" 
d="M429 680q158 0 257 -96q92 -91 92 -230q0 -163 -100 -266q-99 -101 -262 -101q-173 0 -274 103q-90 92 -90 234q0 149 95 247q106 109 282 109zM241 405h353q-18 53 -66 85q-46 30 -107 30q-68 0 -116 -34q-41 -28 -64 -81zM596 279h-364q12 -57 53 -90q49 -42 136 -42
q68 0 120 43q42 36 55 89z" />
    <glyph glyph-name="afii10195" unicode="&#x473;" horiz-adv-x="603" 
d="M308 460q127 0 197 -70q62 -60 62 -159q0 -101 -65 -168q-74 -76 -199 -76q-130 0 -205 75q-63 63 -63 160t67 162q78 76 206 76zM215 266h181q-7 29 -29 46q-22 18 -57 18q-36 0 -59 -17q-25 -19 -36 -47zM394 195h-190q4 -33 26 -55q24 -24 66 -24q34 0 61 22
q26 22 37 57z" />
    <glyph glyph-name="afii10148" unicode="&#x474;" horiz-adv-x="675" 
d="M539 667h190l-358 -667h-143l-174 667h180l76 -304q15 -60 21 -122q15 48 38 91z" />
    <glyph glyph-name="afii10196" unicode="&#x475;" horiz-adv-x="583" 
d="M427 447h183l-302 -447h-112l-174 447h171l51 -136q11 -29 32 -111q34 68 65 116z" />
    <glyph glyph-name="afii10050" unicode="&#x490;" horiz-adv-x="506" 
d="M42 0l82 667h249l16 133h147l-34 -280h-227l-64 -520h-169z" />
    <glyph glyph-name="afii10098" unicode="&#x491;" horiz-adv-x="450" 
d="M87 447h216l17 140h145l-33 -267h-196l-39 -320h-165z" />
    <glyph glyph-name="uni0492" unicode="&#x492;" horiz-adv-x="543" 
d="M568 667l-18 -147h-217l-16 -133h164l-16 -130h-164l-32 -257h-169l32 257h-100l15 130h101l34 280h386z" />
    <glyph glyph-name="uni0493" unicode="&#x493;" horiz-adv-x="462" 
d="M235 0h-165l19 151h-79l12 100h79l26 196h330l-17 -127h-166l-8 -69h103l-12 -100h-103z" />
    <glyph glyph-name="uni0494" unicode="&#x494;" horiz-adv-x="642" 
d="M510 667l-18 -147h-217l-15 -127q58 23 122 23q110 0 168 -50q62 -54 62 -159t-71 -164q-60 -50 -177 -50q-45 0 -85 8l16 131q31 -7 56 -7q43 0 62 18q21 21 21 57q0 31 -20 51q-21 19 -62 19q-58 0 -110 -23l-31 -247h-169l82 667h386z" />
    <glyph glyph-name="uni0495" unicode="&#x495;" horiz-adv-x="505" 
d="M32 0l55 447h332l-17 -127h-166l-10 -84h20q116 0 172 -55q51 -49 51 -137q0 -111 -69 -177q-73 -71 -209 -75l14 118q37 1 65 24q39 32 39 99q0 45 -25 68q-21 18 -65 18h-7l-15 -119h-165z" />
    <glyph glyph-name="uni0496" unicode="&#x496;" horiz-adv-x="987" 
d="M373 0l36 293l-216 -293h-218l282 346l-180 321h200l142 -290l36 290h169l-36 -290l214 290h200l-257 -335l129 -185h104l-36 -297h-152l18 150h-56l-174 293l-36 -293h-169z" />
    <glyph glyph-name="uni0497" unicode="&#x497;" horiz-adv-x="804" 
d="M291 0l24 194l-147 -194h-193l200 239l-128 208h179l97 -187l23 187h160l-23 -187l144 187h187l-186 -219l69 -101h95l-31 -257h-140l16 130h-39l-123 194l-24 -194h-160z" />
    <glyph glyph-name="uni0498" unicode="&#x498;" horiz-adv-x="582" 
d="M156 484l-57 124q52 32 95 48q65 24 139 24q115 0 170 -57q44 -44 44 -113q0 -59 -35 -108q-31 -41 -77 -55l-1 -3q40 -10 69 -37q38 -37 38 -97q0 -87 -58 -149q-59 -61 -146 -71l-19 -156h-152l20 162q-101 22 -181 95l91 122q40 -36 71 -54q46 -26 99 -26q47 0 74 24
q21 19 21 50q0 34 -31 50q-25 13 -85 13h-54l17 134h43q75 0 104 24q25 20 25 53q0 27 -20 43t-61 16t-81 -17q-26 -12 -62 -39z" />
    <glyph glyph-name="uni0499" unicode="&#x499;" horiz-adv-x="488" 
d="M91 298l-38 112q41 23 88 36q57 16 120 16q86 0 133 -28q59 -34 59 -100q0 -43 -29 -72q-21 -19 -54 -32q33 -7 52 -26q27 -27 27 -67q0 -71 -63 -114q-41 -29 -100 -32l-17 -131h-140l19 136q-80 12 -146 59l58 110q37 -27 67 -38q39 -16 83 -16q32 0 47 7q22 9 22 28
q0 22 -27 26q-20 4 -50 4h-46l13 104h41q39 0 56 5q27 7 27 29q0 17 -20 24q-14 6 -46 6q-36 0 -75 -14q-37 -15 -61 -32z" />
    <glyph glyph-name="uni049A" unicode="&#x49a;" horiz-adv-x="672" 
d="M124 667h169l-36 -292l220 292h194l-256 -336l133 -184h104l-36 -297h-152l18 150h-33l-138 196q-46 65 -63 105l-37 -301h-169z" />
    <glyph glyph-name="uni049B" unicode="&#x49b;" horiz-adv-x="597" 
d="M430 0h-64l-72 94q-37 48 -58 86l-22 -180h-165l54 447h165l-23 -190l147 190h200l-199 -227l89 -93h103l-32 -257h-140z" />
    <glyph glyph-name="uni049C" unicode="&#x49c;" horiz-adv-x="795" 
d="M124 667h169l-33 -265h50l18 141h111l-18 -141l190 265h194l-236 -318l199 -349h-202l-99 177q-38 67 -58 122l-17 -140h-111l17 140h-50l-37 -299h-169z" />
    <glyph glyph-name="uni049D" unicode="&#x49d;" horiz-adv-x="677" 
d="M32 0l56 447h165l-22 -169h37l12 98h98l-13 -108l134 179h183l-183 -218l137 -229h-181l-59 110q-28 52 -40 86l-14 -118h-98l13 108h-37l-23 -186h-165z" />
    <glyph glyph-name="uni04A0" unicode="&#x4a0;" horiz-adv-x="774" 
d="M144 0l60 520h-161l18 147h334l-36 -292l220 292h194l-255 -340l228 -327h-203l-143 213q-24 36 -50 88l-37 -301h-169z" />
    <glyph glyph-name="uni04A1" unicode="&#x4a1;" horiz-adv-x="646" 
d="M103 0l38 320h-126l16 127h291l-23 -190l147 190h200l-199 -227l172 -220h-201l-70 94q-39 53 -58 86l-22 -180h-165z" />
    <glyph glyph-name="uni04A2" unicode="&#x4a2;" horiz-adv-x="754" 
d="M539 667h169l-64 -520h94l-36 -297h-152l18 150h-111l35 277h-247l-34 -277h-169l82 667h169l-30 -243h247z" />
    <glyph glyph-name="uni04A3" unicode="&#x4a3;" horiz-adv-x="609" 
d="M32 0l55 447h165l-19 -151h143l19 151h165l-40 -320h74l-32 -257h-140l17 130h-99l21 169h-143l-21 -169h-165z" />
    <glyph glyph-name="uni04A4" unicode="&#x4a4;" horiz-adv-x="861" 
d="M510 424l29 243h352l-18 -147h-183l-64 -520h-169l35 277h-247l-34 -277h-169l82 667h169l-30 -243h247z" />
    <glyph glyph-name="uni04A5" unicode="&#x4a5;" horiz-adv-x="686" 
d="M32 0l55 447h165l-19 -151h143l19 151h301l-17 -127h-137l-37 -320h-165l21 169h-143l-21 -169h-165z" />
    <glyph glyph-name="uni04AA" unicode="&#x4aa;" horiz-adv-x="607" 
d="M563 189l-21 -170q-35 -14 -66 -20l-21 -165h-152l20 158q-104 13 -180 88q-93 92 -93 234q0 155 105 260q106 106 265 106q102 0 196 -56l-20 -165q-73 61 -162 61q-97 0 -158 -61q-53 -55 -53 -133q0 -73 46 -123q53 -56 141 -56q81 0 153 42z" />
    <glyph glyph-name="uni04AB" unicode="&#x4ab;" horiz-adv-x="423" 
d="M383 151l-17 -140q-15 -7 -36 -11l-18 -140h-140l19 136q-56 10 -96 53q-60 64 -60 162q0 107 71 178t176 71q74 0 135 -31l-17 -139q-39 40 -91 40q-42 0 -72 -30q-34 -34 -34 -87q0 -45 26 -71q24 -25 66 -25q47 0 88 34z" />
    <glyph glyph-name="uni04AE" unicode="&#x4ae;" horiz-adv-x="623" 
d="M676 667l-291 -375l-36 -292h-169l37 297l-170 370h187l46 -107q30 -71 36 -90l3.5 -10.5t3.5 -11.5q11 21 33 53l115 166h205z" />
    <glyph glyph-name="uni04AF" unicode="&#x4af;" horiz-adv-x="567" 
d="M20 447h182l44 -146q22 -76 28 -111h2q19 53 47 105l81 152h190l-253 -426l-30 -250h-165l30 250z" />
    <glyph glyph-name="uni04B0" unicode="&#x4b0;" horiz-adv-x="633" 
d="M686 667l-290 -365l-3 -19h170l-15 -124h-170l-20 -159h-168l20 159h-170l15 124h170l3 24l-171 360h187l64 -150q18 -42 25 -69q7 14 33 53l115 166h205z" />
    <glyph glyph-name="uni04B1" unicode="&#x4b1;" horiz-adv-x="567" 
d="M20 447h182l44 -146q22 -76 28 -111h2q19 53 47 105l81 152h190l-252 -410l-3 -22h138l-13 -100h-137l-17 -144h-165l18 144h-137l13 100h136l2 22z" />
    <glyph glyph-name="uni04B2" unicode="&#x4b2;" horiz-adv-x="699" 
d="M724 667l-263 -326l133 -194h102l-36 -297h-152l18 150h-40l-70 96q-20 28 -40 68q-7 13 -26 62q-5 -9 -10 -17t-11 -17t-9 -14q-24 -34 -35 -48l-104 -130h-210l291 351l-191 316h196l44 -78q16 -28 33 -62q18 -36 28 -61q15 24 31 48q13 19 36 49l81 104h204z" />
    <glyph glyph-name="uni04B3" unicode="&#x4b3;" horiz-adv-x="625" 
d="M630 447l-213 -215l90 -105h90l-32 -257h-140l17 130h-38l-48 55q-34 40 -51 74q-13 -19 -64 -74l-52 -55h-210l230 236l-162 211h206l31 -49q26 -43 37 -66q10 19 48 63l46 52h215z" />
    <glyph glyph-name="uni04B6" unicode="&#x4b6;" horiz-adv-x="685" 
d="M499 0h-111l32 262q-73 -10 -126 -10q-115 0 -169 39q-41 30 -49.5 71.5t-1.5 97.5l27 207h169l-21 -178q-6 -58 20 -76q20 -14 80 -14q46 0 89 7l32 261h169l-64 -520h94l-36 -297h-152z" />
    <glyph glyph-name="uni04B7" unicode="&#x4b7;" horiz-adv-x="547" 
d="M377 0h-100l19 154q-43 -11 -90 -11q-101 0 -143 42q-41 41 -30 129l16 133h159l-14 -107q-7 -46 13 -60q14 -10 47 -10t57 7l21 170h165l-39 -320h74l-32 -257h-140z" />
    <glyph glyph-name="uni04B8" unicode="&#x4b8;" horiz-adv-x="701" 
d="M434 0l33 269q-30 -8 -63 -8l-15 -120h-112l14 113q-122 0 -177 55t-41 163l24 194h169l-20 -165q-8 -71 17 -91q18 -14 46 -12l18 145h112l-18 -146q29 0 62 7l33 263h169l-82 -667h-169z" />
    <glyph glyph-name="uni04B9" unicode="&#x4b9;" horiz-adv-x="578" 
d="M324 0l20 164q-24 -7 -42 -7l-9 -79h-91l10 75h-5q-106 0 -146 41q-31 31 -31 86q0 17 5 55l13 112h150l-15 -123q-5 -39 11 -52q12 -11 31 -9l14 113h90l-14 -115q23 0 43 8l21 178h165l-55 -447h-165z" />
    <glyph glyph-name="uni04BA" unicode="&#x4ba;" horiz-adv-x="670" 
d="M293 667l-34 -273q70 22 154 22q98 0 153 -35q33 -21 49 -52t14.5 -60t-3.5 -60l-26 -209h-169l21 165q8 66 -24 87q-26 17 -78 17q-45 0 -108 -18l-31 -251h-169l82 667h169z" />
    <glyph glyph-name="uni04BB" unicode="&#x4bb;" horiz-adv-x="593" 
d="M122 729h165l-40 -322q76 53 147 53q70 0 107.5 -40.5t37.5 -117.5q0 -28 -6 -74l-28 -228h-165l22 179q7 53 7 73q0 71 -60 71q-40 0 -59.5 -25t-26.5 -86l-26 -212h-165z" />
    <glyph glyph-name="uni04C0" unicode="&#x4c0;" horiz-adv-x="309" 
d="M124 667h169l-82 -667h-169z" />
    <glyph glyph-name="uni04C1" unicode="&#x4c1;" horiz-adv-x="987" 
d="M373 0l36 293l-216 -293h-218l282 346l-180 321h200l142 -290l36 290h169l-36 -290l214 290h200l-257 -335l195 -332h-218l-144 293l-36 -293h-169zM660 898l108 -48q-22 -61 -77 -93q-48 -29 -128 -29q-86 0 -133 30q-51 32 -72 92l115 48q7 -31 28 -47q22 -19 65 -19
q36 0 61 19q23 18 33 47z" />
    <glyph glyph-name="uni04C2" unicode="&#x4c2;" horiz-adv-x="799" 
d="M291 0l24 194l-147 -194h-193l200 239l-128 208h179l97 -187l23 187h160l-23 -187l144 187h187l-186 -219l142 -228h-194l-101 194l-24 -194h-160zM533 677l109 -39q-16 -56 -66 -90q-47 -30 -122 -30q-84 0 -128 31q-46 32 -62 89l115 39q6 -30 21 -45q17 -18 52 -18
q39 0 58 20q14 14 23 43z" />
    <glyph glyph-name="uni04C3" unicode="&#x4c3;" horiz-adv-x="661" 
d="M124 667h169l-37 -287l213 287h184l-205 -271q70 -7 113 -52q45 -45 45 -120q0 -109 -65 -170q-76 -73 -240 -54l16 138q14 -9 35 -9q32 0 50 15q24 20 24 55t-28 54q-26 17 -69 17t-87 -16l-31 -254h-169z" />
    <glyph glyph-name="uni04C4" unicode="&#x4c4;" horiz-adv-x="524" 
d="M86 447h165l-23 -190l147 190h187l-194 -226q51 -16 83 -56q37 -46 37 -121q0 -111 -69 -177q-73 -71 -209 -75l14 118q37 1 65 24q39 33 39 97q0 46 -29 73q-30 27 -77 27h-9l-16 -131h-165z" />
    <glyph glyph-name="uni04C7" unicode="&#x4c7;" horiz-adv-x="724" 
d="M539 667h169l-84 -691q-15 -120 -56 -161q-45 -45 -147 -45q-46 0 -85 10l14 114q14 -6 34 -6q33 0 47 14q16 14 22 62l39 313h-247l-34 -277h-169l82 667h169l-30 -243h247z" />
    <glyph glyph-name="uni04C8" unicode="&#x4c8;" horiz-adv-x="594" 
d="M32 0l55 447h165l-19 -151h143l19 151h165l-59 -483q-12 -107 -56 -150q-44 -44 -142 -44q-48 0 -83 9l14 116q13 -7 33 -7q34 0 49 16q15 15 20 60l25 205h-143l-21 -169h-165z" />
    <glyph glyph-name="uni04D0" unicode="&#x4d0;" horiz-adv-x="695" 
d="M462 112h-238l-51 -112h-188l331 667h190l161 -667h-177zM353 393l-67 -149h144l-28 127q-11 53 -15 77q-3 17 -4 24q-11 -36 -30 -79zM510 898l108 -48q-22 -61 -77 -93q-48 -29 -128 -29q-86 0 -133 30q-51 32 -72 92l115 48q7 -31 28 -47q22 -19 65 -19q36 0 61 19
q23 18 33 47z" />
    <glyph glyph-name="uni04D1" unicode="&#x4d1;" horiz-adv-x="612" 
d="M414 447h165l-55 -447h-165l12 49q-38 -35 -72 -48.5t-80 -13.5q-85 0 -135.5 57t-50.5 154q0 113 67 187.5t168 74.5q47 0 78 -13.5t67 -50.5zM291 116q45 0 74.5 34.5t29.5 86.5q0 43 -24 68t-64 25q-45 0 -75.5 -34.5t-30.5 -85.5q0 -43 24.5 -68.5t65.5 -25.5z
M389 677l109 -39q-16 -56 -66 -90q-47 -30 -122 -30q-84 0 -128 31q-46 32 -62 89l115 39q6 -30 21 -45q17 -18 52 -18q39 0 58 20q14 14 23 43z" />
    <glyph glyph-name="uni04D2" unicode="&#x4d2;" horiz-adv-x="695" 
d="M462 112h-238l-51 -112h-188l331 667h190l161 -667h-177zM353 393l-67 -149h144l-28 127q-11 53 -15 77q-3 17 -4 24q-11 -36 -30 -79zM508 887q32 0 56 -24t24 -56q0 -34 -23 -57t-56 -23q-34 0 -58 23.5t-24 57.5q0 32 24 55.5t57 23.5zM306 887q34 0 57 -23.5
t23 -56.5q0 -34 -23 -57t-56 -23q-35 0 -58 23.5t-23 57.5q0 33 23 56t57 23z" />
    <glyph glyph-name="uni04D3" unicode="&#x4d3;" horiz-adv-x="612" 
d="M414 447h165l-55 -447h-165l12 49q-38 -35 -72 -48.5t-80 -13.5q-85 0 -135.5 57t-50.5 154q0 113 67 187.5t168 74.5q47 0 78 -13.5t67 -50.5zM291 116q45 0 74.5 34.5t29.5 86.5q0 43 -24 68t-64 25q-45 0 -75.5 -34.5t-30.5 -85.5q0 -43 24.5 -68.5t65.5 -25.5z
M458 687q32 0 56 -24t24 -56q0 -34 -23 -57t-56 -23q-34 0 -58 23.5t-24 57.5q0 32 24 55.5t57 23.5zM256 687q34 0 57 -23.5t23 -56.5q0 -34 -23 -57t-56 -23q-35 0 -58 23.5t-23 57.5q0 33 23 56t57 23z" />
    <glyph glyph-name="uni04D4" unicode="&#x4d4;" horiz-adv-x="923" 
d="M311 667h417l37 -147h-212l31 -113h203l37 -147h-201l30 -113h206l36 -147h-373l-28 120h-274l-56 -120h-179zM360 421l-78 -168h182l-44 178q-11 47 -18 93q-28 -72 -42 -103z" />
    <glyph glyph-name="uni04D5" unicode="&#x4d5;" horiz-adv-x="863" 
d="M827 197h-334v-5q0 -42 24 -66q23 -23 61 -23q56 0 76 40h159q-16 -71 -77 -113q-64 -43 -157 -43q-66 0 -108 16q-39 15 -64 45q-38 -32 -85 -46q-50 -15 -107 -15q-95 0 -145 46q-42 39 -42 96q0 60 37 97q50 50 147 50q75 0 131 -42q3 15 3 30q0 46 -23 68
q-22 21 -71 21q-61 0 -141 -33l8 117q95 23 161 23q51 0 93 -13q43 -14 71 -45q25 25 64 41q42 17 100 17q95 0 149 -49q70 -63 70 -199v-15zM246 176q-30 0 -50 -12t-20 -32t18 -32q22 -15 57 -15q31 0 51 14q18 13 18 32q0 20 -23 34q-20 11 -51 11zM508 290h169
q-2 32 -28 51q-20 15 -54 15q-38 0 -61 -19q-20 -17 -26 -47z" />
    <glyph glyph-name="uni04D6" unicode="&#x4d6;" horiz-adv-x="483" 
d="M124 667h365l-18 -147h-196l-14 -111h190l-18 -146h-190l-14 -116h204l-18 -147h-373zM411 898l108 -48q-22 -61 -77 -93q-48 -29 -128 -29q-86 0 -133 30q-51 32 -72 92l115 48q7 -31 28 -47q22 -19 65 -19q36 0 61 19q23 18 33 47z" />
    <glyph glyph-name="uni04D7" unicode="&#x4d7;" horiz-adv-x="561" 
d="M525 190h-334q0 -55 23 -76q17 -17 51 -17q25 0 42 12q16 11 22 30h180q-16 -48 -49 -81q-69 -71 -194 -71q-107 0 -171 59q-61 59 -61 158q0 114 73 185t191 71q107 0 169 -62q60 -60 60 -170q0 -14 -2 -38zM202 283h156q-2 33 -23 53q-20 18 -52 18q-35 0 -57 -22
q-18 -18 -24 -49zM389 677l109 -39q-16 -56 -66 -90q-47 -30 -122 -30q-84 0 -128 31q-46 32 -62 89l115 39q6 -30 21 -45q17 -18 52 -18q39 0 58 20q14 14 23 43z" />
    <glyph glyph-name="uni04D8" unicode="&#x4d8;" horiz-adv-x="783" 
d="M263 442l-175 35q45 96 131 149q86 54 205 54q154 0 242 -84q90 -86 90 -227q0 -88 -31 -164t-84 -125q-99 -93 -255 -93q-149 0 -238 88q-56 55 -81 137.5t-9 169.5h523q-7 62 -45 98q-43 40 -125 40q-53 0 -91 -22q-36 -20 -57 -56zM559 258h-335q6 -49 43 -82
q43 -39 120 -39q67 0 113 33q42 32 59 88z" />
    <glyph glyph-name="afii10846" unicode="&#x4d9;" horiz-adv-x="578" 
d="M36 257h338q3 43 -24 69q-19 18 -59 18q-30 0 -50 -14q-15 -11 -26 -32l-154 38q28 56 86 89q62 35 151 35q116 0 180 -62t64 -166q0 -107 -67 -176q-68 -69 -188 -69q-116 0 -183 66q-37 36 -55 89.5t-13 114.5zM363 164h-164q2 -32 20 -50q19 -19 56 -19q44 0 66 22
q19 17 22 47z" />
    <glyph glyph-name="uni04DA" unicode="&#x4da;" horiz-adv-x="783" 
d="M263 442l-175 35q45 96 131 149q86 54 205 54q154 0 242 -84q90 -86 90 -227q0 -88 -31 -164t-84 -125q-99 -93 -255 -93q-149 0 -238 88q-56 55 -81 137.5t-9 169.5h523q-7 62 -45 98q-43 40 -125 40q-53 0 -91 -22q-36 -20 -57 -56zM559 258h-335q6 -49 43 -82
q43 -39 120 -39q67 0 113 33q42 32 59 88zM539 887q32 0 56 -24t24 -56q0 -34 -23 -57t-56 -23q-34 0 -58 23.5t-24 57.5q0 32 24 55.5t57 23.5zM337 887q34 0 57 -23.5t23 -56.5q0 -34 -23 -57t-56 -23q-34 0 -57.5 23.5t-23.5 57.5q0 33 23 56t57 23z" />
    <glyph glyph-name="uni04DB" unicode="&#x4db;" horiz-adv-x="578" 
d="M36 257h338q3 43 -24 69q-19 18 -59 18q-30 0 -50 -14q-15 -11 -26 -32l-154 38q28 56 86 89q62 35 151 35q116 0 180 -62t64 -166q0 -107 -67 -176q-68 -69 -188 -69q-116 0 -183 66q-37 36 -55 89.5t-13 114.5zM363 164h-164q2 -32 20 -50q19 -19 56 -19q44 0 66 22
q19 17 22 47zM403 687q32 0 56 -24t24 -56q0 -34 -23 -57t-56 -23q-34 0 -58 23.5t-24 57.5q0 32 24 55.5t57 23.5zM201 687q34 0 57 -23.5t23 -56.5q0 -34 -23 -57t-56 -23q-34 0 -57.5 23.5t-23.5 57.5q0 33 23 56t57 23z" />
    <glyph glyph-name="uni04DC" unicode="&#x4dc;" horiz-adv-x="987" 
d="M373 0l36 293l-216 -293h-218l282 346l-180 321h200l142 -290l36 290h169l-36 -290l214 290h200l-257 -335l195 -332h-218l-144 293l-36 -293h-169zM648 887q32 0 56 -24t24 -56q0 -34 -23 -57t-56 -23q-34 0 -58 23.5t-24 57.5q0 32 24 55.5t57 23.5zM446 887
q34 0 57 -23.5t23 -56.5q0 -34 -23 -57t-56 -23q-35 0 -58 23.5t-23 57.5q0 33 23 56t57 23z" />
    <glyph glyph-name="uni04DD" unicode="&#x4dd;" horiz-adv-x="799" 
d="M291 0l24 194l-147 -194h-193l200 239l-128 208h179l97 -187l23 187h160l-23 -187l144 187h187l-186 -219l142 -228h-194l-101 194l-24 -194h-160zM532 687q32 0 56 -24t24 -56q0 -34 -23 -57t-56 -23q-34 0 -58 23.5t-24 57.5q0 32 24 55.5t57 23.5zM330 687
q34 0 57 -23.5t23 -56.5q0 -34 -23 -57t-56 -23q-35 0 -58 23.5t-23 57.5q0 33 23 56t57 23z" />
    <glyph glyph-name="uni04DE" unicode="&#x4de;" horiz-adv-x="582" 
d="M156 484l-57 124q52 32 95 48q65 24 137 24q115 0 172 -57q44 -44 44 -113q0 -59 -35 -108q-31 -41 -77 -55l-1 -3q40 -10 69 -37q38 -37 38 -97q0 -89 -58 -149q-70 -74 -214 -74q-82 0 -151 32q-52 24 -113 72l91 122q40 -36 71 -54q46 -26 99 -26q47 0 74 24
q21 19 21 50q0 34 -31 50q-25 13 -85 13h-54l17 134h43q75 0 104 24q25 20 25 53q0 27 -20 43t-66 16q-43 0 -77 -17q-26 -12 -61 -39zM437 887q32 0 56 -24t24 -56q0 -34 -23 -57t-56 -23q-34 0 -58 23.5t-24 57.5q0 32 24 55.5t57 23.5zM235 887q34 0 57 -23.5t23 -56.5
q0 -34 -23 -57t-56 -23q-34 0 -57.5 23.5t-23.5 57.5q0 33 23 56t57 23z" />
    <glyph glyph-name="uni04DF" unicode="&#x4df;" horiz-adv-x="488" 
d="M91 298l-38 112q41 23 88 36q57 16 120 16q86 0 133 -28q59 -34 59 -100q0 -43 -29 -72q-23 -21 -54 -30v-2q33 -7 52 -26q27 -27 27 -67q0 -73 -63 -114q-54 -36 -155 -36q-74 0 -137 22q-51 18 -92 46l58 110q37 -27 67 -38q39 -16 83 -16q32 0 47 7q22 9 22 28
q0 22 -27 26q-20 4 -50 4h-46l13 104h41q39 0 56 5q27 7 27 29q0 17 -20 24q-14 6 -46 6q-36 0 -75 -14q-37 -15 -61 -32zM363 687q32 0 56 -24t24 -56q0 -34 -23 -57t-56 -23q-34 0 -58 23.5t-24 57.5q0 32 24 55.5t57 23.5zM161 687q34 0 57 -23.5t23 -56.5q0 -34 -23 -57
t-56 -23q-34 0 -57.5 23.5t-23.5 57.5q0 33 23 56t57 23z" />
    <glyph glyph-name="uni04E2" unicode="&#x4e2;" horiz-adv-x="731" 
d="M124 667h169l-51 -412l309 412h164l-82 -667h-169l51 412l-311 -412h-162zM229 749l12 98h376l-12 -98h-376z" />
    <glyph glyph-name="uni04E3" unicode="&#x4e3;" horiz-adv-x="598" 
d="M87 447h165l-29 -230l197 230h144l-55 -447h-165l29 236l-195 -236h-146zM126 539l12 98h396l-12 -98h-396z" />
    <glyph glyph-name="uni04E4" unicode="&#x4e4;" horiz-adv-x="731" 
d="M124 667h169l-51 -412l309 412h164l-82 -667h-169l51 412l-311 -412h-162zM528 887q32 0 56 -24t24 -56q0 -34 -23 -57t-56 -23q-34 0 -58 23.5t-24 57.5q0 32 24 55.5t57 23.5zM326 887q34 0 57 -23.5t23 -56.5q0 -34 -23 -57t-56 -23q-35 0 -58 23.5t-23 57.5
q0 33 23 56t57 23z" />
    <glyph glyph-name="uni04E5" unicode="&#x4e5;" horiz-adv-x="598" 
d="M87 447h165l-29 -230l197 230h144l-55 -447h-165l29 236l-195 -236h-146zM438 687q32 0 56 -24t24 -56q0 -34 -23 -57t-56 -23q-34 0 -58 23.5t-24 57.5q0 32 24 55.5t57 23.5zM236 687q34 0 57 -23.5t23 -56.5q0 -34 -23 -57t-56 -23q-35 0 -58 23.5t-23 57.5
q0 33 23 56t57 23z" />
    <glyph glyph-name="uni04E6" unicode="&#x4e6;" horiz-adv-x="805" 
d="M429 680q158 0 257 -96q92 -91 92 -230q0 -163 -100 -266q-99 -101 -262 -101q-173 0 -274 103q-90 92 -90 234q0 149 95 247q106 109 282 109zM422 520q-87 0 -141 -54q-56 -56 -56 -136q0 -76 45 -126q51 -57 142 -57q90 0 140 53q52 54 52 138q0 79 -46 127
q-53 55 -136 55zM528 887q32 0 56 -24t24 -56q0 -34 -23 -57t-56 -23q-34 0 -58 23.5t-24 57.5q0 32 24 55.5t57 23.5zM326 887q34 0 57 -23.5t23 -56.5q0 -34 -23 -57t-56 -23q-35 0 -58 23.5t-23 57.5q0 33 23 56t57 23z" />
    <glyph glyph-name="uni04E7" unicode="&#x4e7;" horiz-adv-x="603" 
d="M308 460q127 0 197 -70q62 -60 62 -159q0 -101 -65 -168q-74 -76 -199 -76q-130 0 -205 75q-63 63 -63 160t67 162q78 76 206 76zM294 116q43 0 71 29q34 34 34 92q0 47 -27 71q-25 22 -62 22q-43 0 -73 -31q-34 -36 -34 -89q0 -41 25 -68q26 -26 66 -26zM428 687
q32 0 56 -24t24 -56q0 -34 -23 -57t-56 -23q-34 0 -58 23.5t-24 57.5q0 32 24 55.5t57 23.5zM226 687q34 0 57 -23.5t23 -56.5q0 -34 -23 -57t-56 -23q-35 0 -58 23.5t-23 57.5q0 33 23 56t57 23z" />
    <glyph glyph-name="uni04E8" unicode="&#x4e8;" horiz-adv-x="805" 
d="M429 680q158 0 257 -96q92 -91 92 -230q0 -163 -100 -266q-99 -101 -262 -101q-173 0 -274 103q-90 92 -90 234q0 149 95 247q106 109 282 109zM241 405h353q-18 53 -66 85q-46 30 -107 30q-68 0 -116 -34q-41 -28 -64 -81zM596 279h-364q12 -57 53 -90q49 -42 136 -42
q68 0 120 43q42 36 55 89z" />
    <glyph glyph-name="uni04E9" unicode="&#x4e9;" horiz-adv-x="603" 
d="M308 460q127 0 197 -70q62 -60 62 -159q0 -101 -65 -168q-74 -76 -199 -76q-130 0 -205 75q-63 63 -63 160t67 162q78 76 206 76zM215 266h181q-7 29 -29 46q-22 18 -57 18q-36 0 -59 -17q-25 -19 -36 -47zM394 195h-190q4 -33 26 -55q24 -24 66 -24q34 0 61 22
q26 22 37 57z" />
    <glyph glyph-name="uni04EA" unicode="&#x4ea;" horiz-adv-x="805" 
d="M429 680q158 0 257 -96q92 -91 92 -230q0 -163 -100 -266q-99 -101 -262 -101q-173 0 -274 103q-90 92 -90 234q0 149 95 247q106 109 282 109zM241 405h353q-18 53 -66 85q-46 30 -107 30q-68 0 -116 -34q-41 -28 -64 -81zM596 279h-364q12 -57 53 -90q49 -42 136 -42
q68 0 120 43q42 36 55 89zM528 887q32 0 56 -24t24 -56q0 -34 -23 -57t-56 -23q-34 0 -58 23.5t-24 57.5q0 32 24 55.5t57 23.5zM326 887q34 0 57 -23.5t23 -56.5q0 -34 -23 -57t-56 -23q-35 0 -58 23.5t-23 57.5q0 33 23 56t57 23z" />
    <glyph glyph-name="uni04EB" unicode="&#x4eb;" horiz-adv-x="603" 
d="M308 460q127 0 197 -70q62 -60 62 -159q0 -101 -65 -168q-74 -76 -199 -76q-130 0 -205 75q-63 63 -63 160t67 162q78 76 206 76zM215 266h181q-7 29 -29 46q-22 18 -57 18q-36 0 -59 -17q-25 -19 -36 -47zM394 195h-190q4 -33 26 -55q24 -24 66 -24q34 0 61 22
q26 22 37 57zM428 687q32 0 56 -24t24 -56q0 -34 -23 -57t-56 -23q-34 0 -58 23.5t-24 57.5q0 32 24 55.5t57 23.5zM226 687q34 0 57 -23.5t23 -56.5q0 -34 -23 -57t-56 -23q-35 0 -58 23.5t-23 57.5q0 33 23 56t57 23z" />
    <glyph glyph-name="uni04EE" unicode="&#x4ee;" horiz-adv-x="642" 
d="M45 667h182l126 -299l147 299h195l-382 -667h-183l118 200zM164 749l12 98h376l-12 -98h-376z" />
    <glyph glyph-name="uni04EF" unicode="&#x4ef;" horiz-adv-x="588" 
d="M427 447h188l-418 -676h-185l160 264l-158 412h183l48 -121q23 -57 37 -128q23 50 59 108zM118 539l12 98h396l-12 -98h-396z" />
    <glyph glyph-name="uni04F0" unicode="&#x4f0;" horiz-adv-x="642" 
d="M45 667h182l126 -299l147 299h195l-382 -667h-183l118 200zM462 887q32 0 56 -24t24 -56q0 -34 -23 -57t-56 -23q-34 0 -58 23.5t-24 57.5q0 32 24 55.5t57 23.5zM260 887q34 0 57 -23.5t23 -56.5q0 -34 -23 -57t-56 -23q-35 0 -58 23.5t-23 57.5q0 33 23 56t57 23z" />
    <glyph glyph-name="uni04F1" unicode="&#x4f1;" horiz-adv-x="588" 
d="M427 447h188l-418 -676h-185l160 264l-158 412h183l48 -121q23 -57 37 -128q23 50 59 108zM428 687q32 0 56 -24t24 -56q0 -34 -23 -57t-56 -23q-34 0 -58 23.5t-24 57.5q0 32 24 55.5t57 23.5zM226 687q34 0 57 -23.5t23 -56.5q0 -34 -23 -57t-56 -23q-35 0 -58 23.5
t-23 57.5q0 33 23 56t57 23z" />
    <glyph glyph-name="uni04F2" unicode="&#x4f2;" horiz-adv-x="642" 
d="M45 667h182l126 -299l147 299h195l-382 -667h-183l118 200zM253 898h151l-117 -171h-100zM453 898h151l-117 -171h-99z" />
    <glyph glyph-name="uni04F3" unicode="&#x4f3;" horiz-adv-x="588" 
d="M427 447h188l-418 -676h-185l160 264l-158 412h183l48 -121q23 -57 37 -128q23 50 59 108zM228 698h151l-117 -171h-100zM428 698h151l-117 -171h-99z" />
    <glyph glyph-name="uni04F4" unicode="&#x4f4;" horiz-adv-x="652" 
d="M385 0l32 262q-59 -10 -114 -10q-115 0 -172 40q-61 43 -61 133q0 9 10 94l18 148h169l-18 -140q-5 -36 -5 -50q0 -78 112 -78q43 0 79 7l32 261h169l-82 -667h-169zM482 887q32 0 56 -24t24 -56q0 -34 -23 -57t-56 -23q-34 0 -58 23.5t-24 57.5q0 32 24 55.5t57 23.5z
M280 887q34 0 57 -23.5t23 -56.5q0 -34 -23 -57t-56 -23q-35 0 -58 23.5t-23 57.5q0 33 23 56t57 23z" />
    <glyph glyph-name="uni04F5" unicode="&#x4f5;" horiz-adv-x="531" 
d="M277 0l19 154q-43 -11 -90 -11q-101 0 -143 42q-41 41 -30 129l16 133h159l-14 -107q-7 -46 13 -60q14 -10 47 -10t57 7l21 170h165l-55 -447h-165zM388 687q32 0 56 -24t24 -56q0 -34 -23 -57t-56 -23q-34 0 -58 23.5t-24 57.5q0 32 24 55.5t57 23.5zM186 687
q34 0 57 -23.5t23 -56.5q0 -34 -23 -57t-56 -23q-35 0 -58 23.5t-23 57.5q0 33 23 56t57 23z" />
    <glyph glyph-name="uni04F8" unicode="&#x4f8;" horiz-adv-x="861" 
d="M594 0l82 667h169l-82 -667h-169zM42 0l82 667h169l-32 -262h87q115 0 169 -54q48 -48 48 -125q0 -100 -58 -158q-68 -68 -234 -68h-231zM228 133h57q61 0 83 15q28 20 28 66q0 28 -14 42q-16 16 -77 16h-60zM598 887q32 0 56 -24t24 -56q0 -34 -23 -57t-56 -23
q-34 0 -58 23.5t-24 57.5q0 32 24 55.5t57 23.5zM396 887q34 0 57 -23.5t23 -56.5q0 -34 -23 -57t-56 -23q-35 0 -58 23.5t-23 57.5q0 33 23 56t57 23z" />
    <glyph glyph-name="uni04F9" unicode="&#x4f9;" horiz-adv-x="766" 
d="M567 447h165l-55 -447h-165zM234 298h84q93 0 134 -40q38 -36 38 -96q0 -70 -43 -113q-49 -49 -136 -49h-279l54 447h166zM210 104h49q36 0 52 14q15 13 15 38q0 21 -15 30q-11 8 -55 8h-35zM513 687q32 0 56 -24t24 -56q0 -34 -23 -57t-56 -23q-34 0 -58 23.5t-24 57.5
q0 32 24 55.5t57 23.5zM311 687q34 0 57 -23.5t23 -56.5q0 -34 -23 -57t-56 -23q-34 0 -57.5 23.5t-23.5 57.5q0 33 23 56t57 23z" />
    <glyph glyph-name="uni1E9E" unicode="&#x1e9e;" horiz-adv-x="625" 
d="M271 456l-56 -456h-173l52 422q15 129 85 194q70 66 185 66q90 0 146 -42q47 -35 64 -91q6 -20 8 -62l-107 -110q49 -14 79 -49q29 -36 31 -90q0 -120 -84 -193q-70 -61 -234 -58l16 135q61 -2 93 25q33 28 33 78q-2 41 -28 60q-23 17 -75 19l8 69l92 98q2 9 2 25
q0 22 -16 38q-15 15 -42 15t-48 -18q-24 -22 -31 -75z" />
    <glyph glyph-name="uni2010" unicode="&#x2010;" horiz-adv-x="353" 
d="M45 202l16 133h253l-16 -133h-253z" />
    <glyph glyph-name="uni2011" unicode="&#x2011;" horiz-adv-x="353" 
d="M45 202l16 133h253l-16 -133h-253z" />
    <glyph glyph-name="figuredash" unicode="&#x2012;" horiz-adv-x="574" 
d="M64 275l17 132h434l-17 -132h-434z" />
    <glyph glyph-name="endash" unicode="&#x2013;" horiz-adv-x="574" 
d="M64 199l17 132h434l-17 -132h-434z" />
    <glyph glyph-name="emdash" unicode="&#x2014;" horiz-adv-x="907" 
d="M64 199l17 132h767l-17 -132h-767z" />
    <glyph glyph-name="afii00208" unicode="&#x2015;" horiz-adv-x="907" 
d="M64 199l17 132h767l-17 -132h-767z" />
    <glyph glyph-name="quoteleft" unicode="&#x2018;" horiz-adv-x="312" 
d="M198 383h-137l163 284h110z" />
    <glyph glyph-name="quoteright" unicode="&#x2019;" horiz-adv-x="312" 
d="M196 667h138l-164 -284h-109z" />
    <glyph glyph-name="quotesinglbase" unicode="&#x201a;" horiz-adv-x="342" 
d="M139 167h153l-182 -316h-122z" />
    <glyph glyph-name="quotedblleft" unicode="&#x201c;" horiz-adv-x="525" 
d="M412 383h-138l164 284h109zM198 383h-137l163 284h110z" />
    <glyph glyph-name="quotedblright" unicode="&#x201d;" horiz-adv-x="530" 
d="M414 667h138l-168 -294h-110zM201 667h138l-168 -294h-110z" />
    <glyph glyph-name="quotedblbase" unicode="&#x201e;" horiz-adv-x="539" 
d="M351 167h138l-179 -316h-109zM138 167h138l-179 -316h-109z" />
    <glyph glyph-name="dagger" unicode="&#x2020;" horiz-adv-x="615" 
d="M274 531l25 198h147l-25 -198h157l-15 -127h-157l-73 -592h-147l73 592h-156l15 127h156z" />
    <glyph glyph-name="daggerdbl" unicode="&#x2021;" horiz-adv-x="617" 
d="M278 531l25 198h147l-25 -198h155l-15 -127h-155l-27 -216h155l-16 -127h-155l-30 -249h-147l30 249h-156l16 127h156l27 216h-156l15 127h156z" />
    <glyph glyph-name="bullet" unicode="&#x2022;" horiz-adv-x="1000" 
d="M376 340q0 58 40 99t97 41t98 -41t41 -99t-41 -99t-98 -41t-97 41t-40 99z" />
    <glyph glyph-name="ellipsis" unicode="&#x2026;" horiz-adv-x="895" 
d="M130 190q44 0 74 -29t30 -71q0 -43 -29 -73t-71 -30t-72.5 30.5t-30.5 71.5q0 42 29 71.5t70 29.5zM429 190q43 0 73 -29t30 -71q0 -43 -29 -73t-71 -30t-72 30.5t-30 71.5q0 42 29 71.5t70 29.5zM727 190q43 0 73 -29t30 -71q0 -43 -29 -73t-71 -30q-41 0 -71.5 30.5
t-30.5 71.5q0 42 29 71.5t70 29.5z" />
    <glyph glyph-name="perthousand" unicode="&#x2030;" horiz-adv-x="1289" 
d="M646 667h88l-469 -667h-88zM649 -8q-79 0 -124 44q-45 45 -45 106q0 74 54 127q53 50 136 50q84 0 129 -45q41 -39 41 -102q0 -73 -49 -124q-55 -56 -142 -56zM667 231q-33 0 -55 -22q-24 -23 -24 -60q0 -30 19 -49t49 -19q31 0 53 22q23 23 23 60q0 31 -19 50
q-18 18 -46 18zM247 586q-33 0 -55 -22q-24 -22 -24 -60q0 -30 19 -49t49 -19q31 0 53 22q23 23 23 60q0 31 -19 50q-18 18 -46 18zM229 347q-79 0 -124 44q-45 45 -45 106q0 74 54 127q53 50 136 50q84 0 129 -45q41 -39 41 -102q0 -73 -49 -124q-55 -56 -142 -56z
M1081 231q-33 0 -55 -22q-24 -22 -24 -60q0 -30 19 -49t49 -19q31 0 53 22q23 23 23 60q0 31 -19 50q-18 18 -46 18zM1063 -8q-79 0 -124 44q-45 45 -45 106q0 74 54 127q53 50 136 50q84 0 129 -45q41 -39 41 -102q0 -73 -49 -124q-55 -56 -142 -56z" />
    <glyph glyph-name="guilsinglleft" unicode="&#x2039;" horiz-adv-x="333" 
d="M297 379l-127 -160l90 -152l-97 -57l-125 218l179 217z" />
    <glyph glyph-name="guilsinglright" unicode="&#x203a;" horiz-adv-x="333" 
d="M39 78l133 154l-92 156l96 57l125 -217l-179 -218z" />
    <glyph glyph-name="fraction" unicode="&#x2044;" horiz-adv-x="261" 
d="M321 667h90l-471 -667h-90z" />
    <glyph glyph-name="Euro" unicode="&#x20ac;" horiz-adv-x="600" 
d="M547 190l-20 -167q-73 -38 -167 -38q-129 0 -206 62q-79 63 -90 168h-78l47 90h30q2 30 7 50h-66l47 90h43q37 109 127 171q94 65 226 65q107 0 185 -44l-76 -146q-61 38 -136 38q-54 0 -95 -22q-41 -23 -57 -62h268l-47 -90h-250q-6 -25 -6 -50h229l-47 -90h-171
q11 -37 49 -58q36 -20 93 -20q95 0 161 53z" />
    <glyph glyph-name="uni20B4" unicode="&#x20b4;" horiz-adv-x="600" 
d="M184 498l-51 127q113 57 249 57q95 0 138 -33q45 -36 45 -95q0 -60 -42 -102h69l-11 -97h-151l-74 -63h217l-12 -97h-290q-19 -14 -19 -38q0 -18 14 -29q15 -12 53 -12q82 0 162 37l54 -118q-119 -56 -259 -56q-114 0 -162 33q-49 35 -49 94q0 52 33 89h-60l12 97h130
l74 63h-196l11 97h279q22 18 22 45q0 22 -15 34t-48 12q-63 0 -123 -45z" />
    <glyph glyph-name="uni20B6" unicode="&#x20b6;" horiz-adv-x="600" 
d="M163 667h214q129 0 186 -57q51 -51 51 -145q0 -90 -50 -143q-67 -72 -221 -72h-62l-8 -63h180l-12 -97h-180l-11 -90h-169l11 90h-82l12 97h82l8 63h-82l13 110h82zM352 527h-37l-20 -166h43q58 0 83 28q19 23 19 59q0 39 -17 57q-19 22 -71 22z" />
    <glyph glyph-name="uni20B6" unicode="&#x20cf;" horiz-adv-x="600" 
d="M163 667h214q129 0 186 -57q51 -51 51 -145q0 -90 -50 -143q-67 -72 -221 -72h-62l-8 -63h180l-12 -97h-180l-11 -90h-169l11 90h-82l12 97h82l8 63h-82l13 110h82zM352 527h-37l-20 -166h43q58 0 83 28q19 23 19 59q0 39 -17 57q-19 22 -71 22z" />
    <glyph glyph-name="uni20B6" unicode="&#x20ce;" horiz-adv-x="600" 
d="M163 667h214q129 0 186 -57q51 -51 51 -145q0 -90 -50 -143q-67 -72 -221 -72h-62l-8 -63h180l-12 -97h-180l-11 -90h-169l11 90h-82l12 97h82l8 63h-82l13 110h82zM352 527h-37l-20 -166h43q58 0 83 28q19 23 19 59q0 39 -17 57q-19 22 -71 22z" />
    <glyph glyph-name="uni20B6" unicode="&#x20cd;" horiz-adv-x="600" 
d="M163 667h214q129 0 186 -57q51 -51 51 -145q0 -90 -50 -143q-67 -72 -221 -72h-62l-8 -63h180l-12 -97h-180l-11 -90h-169l11 90h-82l12 97h82l8 63h-82l13 110h82zM352 527h-37l-20 -166h43q58 0 83 28q19 23 19 59q0 39 -17 57q-19 22 -71 22z" />
    <glyph glyph-name="uni20B6" unicode="&#x20cc;" horiz-adv-x="600" 
d="M163 667h214q129 0 186 -57q51 -51 51 -145q0 -90 -50 -143q-67 -72 -221 -72h-62l-8 -63h180l-12 -97h-180l-11 -90h-169l11 90h-82l12 97h82l8 63h-82l13 110h82zM352 527h-37l-20 -166h43q58 0 83 28q19 23 19 59q0 39 -17 57q-19 22 -71 22z" />
    <glyph glyph-name="uni20B6" unicode="&#x20cb;" horiz-adv-x="600" 
d="M163 667h214q129 0 186 -57q51 -51 51 -145q0 -90 -50 -143q-67 -72 -221 -72h-62l-8 -63h180l-12 -97h-180l-11 -90h-169l11 90h-82l12 97h82l8 63h-82l13 110h82zM352 527h-37l-20 -166h43q58 0 83 28q19 23 19 59q0 39 -17 57q-19 22 -71 22z" />
    <glyph glyph-name="uni20B6" unicode="&#x20ca;" horiz-adv-x="600" 
d="M163 667h214q129 0 186 -57q51 -51 51 -145q0 -90 -50 -143q-67 -72 -221 -72h-62l-8 -63h180l-12 -97h-180l-11 -90h-169l11 90h-82l12 97h82l8 63h-82l13 110h82zM352 527h-37l-20 -166h43q58 0 83 28q19 23 19 59q0 39 -17 57q-19 22 -71 22z" />
    <glyph glyph-name="uni20B6" unicode="&#x20c9;" horiz-adv-x="600" 
d="M163 667h214q129 0 186 -57q51 -51 51 -145q0 -90 -50 -143q-67 -72 -221 -72h-62l-8 -63h180l-12 -97h-180l-11 -90h-169l11 90h-82l12 97h82l8 63h-82l13 110h82zM352 527h-37l-20 -166h43q58 0 83 28q19 23 19 59q0 39 -17 57q-19 22 -71 22z" />
    <glyph glyph-name="uni20B6" unicode="&#x20c8;" horiz-adv-x="600" 
d="M163 667h214q129 0 186 -57q51 -51 51 -145q0 -90 -50 -143q-67 -72 -221 -72h-62l-8 -63h180l-12 -97h-180l-11 -90h-169l11 90h-82l12 97h82l8 63h-82l13 110h82zM352 527h-37l-20 -166h43q58 0 83 28q19 23 19 59q0 39 -17 57q-19 22 -71 22z" />
    <glyph glyph-name="uni20B6" unicode="&#x20c7;" horiz-adv-x="600" 
d="M163 667h214q129 0 186 -57q51 -51 51 -145q0 -90 -50 -143q-67 -72 -221 -72h-62l-8 -63h180l-12 -97h-180l-11 -90h-169l11 90h-82l12 97h82l8 63h-82l13 110h82zM352 527h-37l-20 -166h43q58 0 83 28q19 23 19 59q0 39 -17 57q-19 22 -71 22z" />
    <glyph glyph-name="uni20B6" unicode="&#x20c6;" horiz-adv-x="600" 
d="M163 667h214q129 0 186 -57q51 -51 51 -145q0 -90 -50 -143q-67 -72 -221 -72h-62l-8 -63h180l-12 -97h-180l-11 -90h-169l11 90h-82l12 97h82l8 63h-82l13 110h82zM352 527h-37l-20 -166h43q58 0 83 28q19 23 19 59q0 39 -17 57q-19 22 -71 22z" />
    <glyph glyph-name="uni20B6" unicode="&#x20c5;" horiz-adv-x="600" 
d="M163 667h214q129 0 186 -57q51 -51 51 -145q0 -90 -50 -143q-67 -72 -221 -72h-62l-8 -63h180l-12 -97h-180l-11 -90h-169l11 90h-82l12 97h82l8 63h-82l13 110h82zM352 527h-37l-20 -166h43q58 0 83 28q19 23 19 59q0 39 -17 57q-19 22 -71 22z" />
    <glyph glyph-name="uni20B6" unicode="&#x20c4;" horiz-adv-x="600" 
d="M163 667h214q129 0 186 -57q51 -51 51 -145q0 -90 -50 -143q-67 -72 -221 -72h-62l-8 -63h180l-12 -97h-180l-11 -90h-169l11 90h-82l12 97h82l8 63h-82l13 110h82zM352 527h-37l-20 -166h43q58 0 83 28q19 23 19 59q0 39 -17 57q-19 22 -71 22z" />
    <glyph glyph-name="uni20B6" unicode="&#x20c3;" horiz-adv-x="600" 
d="M163 667h214q129 0 186 -57q51 -51 51 -145q0 -90 -50 -143q-67 -72 -221 -72h-62l-8 -63h180l-12 -97h-180l-11 -90h-169l11 90h-82l12 97h82l8 63h-82l13 110h82zM352 527h-37l-20 -166h43q58 0 83 28q19 23 19 59q0 39 -17 57q-19 22 -71 22z" />
    <glyph glyph-name="uni20B6" unicode="&#x20c2;" horiz-adv-x="600" 
d="M163 667h214q129 0 186 -57q51 -51 51 -145q0 -90 -50 -143q-67 -72 -221 -72h-62l-8 -63h180l-12 -97h-180l-11 -90h-169l11 90h-82l12 97h82l8 63h-82l13 110h82zM352 527h-37l-20 -166h43q58 0 83 28q19 23 19 59q0 39 -17 57q-19 22 -71 22z" />
    <glyph glyph-name="uni20B6" unicode="&#x20c1;" horiz-adv-x="600" 
d="M163 667h214q129 0 186 -57q51 -51 51 -145q0 -90 -50 -143q-67 -72 -221 -72h-62l-8 -63h180l-12 -97h-180l-11 -90h-169l11 90h-82l12 97h82l8 63h-82l13 110h82zM352 527h-37l-20 -166h43q58 0 83 28q19 23 19 59q0 39 -17 57q-19 22 -71 22z" />
    <glyph glyph-name="uni20B6" unicode="&#x20c0;" horiz-adv-x="600" 
d="M163 667h214q129 0 186 -57q51 -51 51 -145q0 -90 -50 -143q-67 -72 -221 -72h-62l-8 -63h180l-12 -97h-180l-11 -90h-169l11 90h-82l12 97h82l8 63h-82l13 110h82zM352 527h-37l-20 -166h43q58 0 83 28q19 23 19 59q0 39 -17 57q-19 22 -71 22z" />
    <glyph glyph-name="uni20B6" unicode="&#x20bf;" horiz-adv-x="600" 
d="M163 667h214q129 0 186 -57q51 -51 51 -145q0 -90 -50 -143q-67 -72 -221 -72h-62l-8 -63h180l-12 -97h-180l-11 -90h-169l11 90h-82l12 97h82l8 63h-82l13 110h82zM352 527h-37l-20 -166h43q58 0 83 28q19 23 19 59q0 39 -17 57q-19 22 -71 22z" />
    <glyph glyph-name="uni20B6" unicode="&#x20be;" horiz-adv-x="600" 
d="M163 667h214q129 0 186 -57q51 -51 51 -145q0 -90 -50 -143q-67 -72 -221 -72h-62l-8 -63h180l-12 -97h-180l-11 -90h-169l11 90h-82l12 97h82l8 63h-82l13 110h82zM352 527h-37l-20 -166h43q58 0 83 28q19 23 19 59q0 39 -17 57q-19 22 -71 22z" />
    <glyph glyph-name="uni20B6" unicode="&#x20bd;" horiz-adv-x="600" 
d="M163 667h214q129 0 186 -57q51 -51 51 -145q0 -90 -50 -143q-67 -72 -221 -72h-62l-8 -63h180l-12 -97h-180l-11 -90h-169l11 90h-82l12 97h82l8 63h-82l13 110h82zM352 527h-37l-20 -166h43q58 0 83 28q19 23 19 59q0 39 -17 57q-19 22 -71 22z" />
    <glyph glyph-name="uni20B6" unicode="&#x20bc;" horiz-adv-x="600" 
d="M163 667h214q129 0 186 -57q51 -51 51 -145q0 -90 -50 -143q-67 -72 -221 -72h-62l-8 -63h180l-12 -97h-180l-11 -90h-169l11 90h-82l12 97h82l8 63h-82l13 110h82zM352 527h-37l-20 -166h43q58 0 83 28q19 23 19 59q0 39 -17 57q-19 22 -71 22z" />
    <glyph glyph-name="uni20B6" unicode="&#x20bb;" horiz-adv-x="600" 
d="M163 667h214q129 0 186 -57q51 -51 51 -145q0 -90 -50 -143q-67 -72 -221 -72h-62l-8 -63h180l-12 -97h-180l-11 -90h-169l11 90h-82l12 97h82l8 63h-82l13 110h82zM352 527h-37l-20 -166h43q58 0 83 28q19 23 19 59q0 39 -17 57q-19 22 -71 22z" />
    <glyph glyph-name="uni20B6" unicode="&#x20ba;" horiz-adv-x="600" 
d="M163 667h214q129 0 186 -57q51 -51 51 -145q0 -90 -50 -143q-67 -72 -221 -72h-62l-8 -63h180l-12 -97h-180l-11 -90h-169l11 90h-82l12 97h82l8 63h-82l13 110h82zM352 527h-37l-20 -166h43q58 0 83 28q19 23 19 59q0 39 -17 57q-19 22 -71 22z" />
    <glyph glyph-name="uni20B6" unicode="&#x20b9;" horiz-adv-x="600" 
d="M163 667h214q129 0 186 -57q51 -51 51 -145q0 -90 -50 -143q-67 -72 -221 -72h-62l-8 -63h180l-12 -97h-180l-11 -90h-169l11 90h-82l12 97h82l8 63h-82l13 110h82zM352 527h-37l-20 -166h43q58 0 83 28q19 23 19 59q0 39 -17 57q-19 22 -71 22z" />
    <glyph glyph-name="uni20B6" unicode="&#x20b7;" horiz-adv-x="600" 
d="M163 667h214q129 0 186 -57q51 -51 51 -145q0 -90 -50 -143q-67 -72 -221 -72h-62l-8 -63h180l-12 -97h-180l-11 -90h-169l11 90h-82l12 97h82l8 63h-82l13 110h82zM352 527h-37l-20 -166h43q58 0 83 28q19 23 19 59q0 39 -17 57q-19 22 -71 22z" />
    <glyph glyph-name="uni20B8" unicode="&#x20b8;" horiz-adv-x="600" 
d="M540 380h-140l-48 -380h-168l47 380h-143l17 137h452zM561 560h-452l14 107h452z" />
    <glyph glyph-name="afii61352" unicode="&#x2116;" horiz-adv-x="1177" 
d="M613 667h169l-82 -667h-185l-177 299q-51 85 -82 165q0 -102 -7 -156l-38 -308h-169l82 667h182l190 -322q23 -40 68 -130q2 67 8 114zM1010 667q88 0 138 -52q39 -40 39 -99q0 -66 -45 -113q-50 -52 -136 -52q-88 0 -142 54q-41 41 -41 100q0 65 43 108q52 54 144 54z
M808 287h353l-12 -95h-353zM1003 440q31 0 50 19q20 22 20 53q0 30 -14 45q-17 19 -52 19q-29 0 -48 -18q-22 -22 -22 -55q0 -27 15 -43q18 -20 51 -20z" />
    <glyph glyph-name="uni2117" unicode="&#x2117;" horiz-adv-x="771" 
d="M272 529h148q74 0 111 -36q33 -33 33 -90q0 -58 -33 -91q-36 -36 -110 -36h-32v-126h-117v379zM389 441v-77h7q27 0 39 9q14 10 14 30q0 19 -15 29q-12 9 -38 9h-7zM751 333q0 -67 -27 -132.5t-75 -113.5q-49 -49 -116.5 -75.5t-134.5 -26.5q-66 0 -133 26.5t-117 75.5
q-48 48 -75 113.5t-27 132.5q0 68 27 133.5t75 113.5q50 49 117 75.5t133 26.5q67 0 134.5 -26.5t116.5 -75.5q48 -48 75 -113.5t27 -133.5zM398 619q-116 0 -198 -82q-84 -84 -84 -204t84 -204q82 -82 198 -82q117 0 199 82q84 84 84 204t-84 204q-82 82 -199 82z" />
    <glyph glyph-name="trademark" unicode="&#x2122;" horiz-adv-x="842" 
d="M328 573h-84l-36 -286h-114l35 286h-86l12 94h284zM705 667h115l17 -380h-115l-7 203l-109 -203h-63l-37 146q-7 29 -13 64q-6 -28 -12 -46l-51 -164h-118l126 380h111l32 -128q9 -36 16 -74z" />
    <glyph glyph-name="partialdiff" unicode="&#x2202;" horiz-adv-x="564" 
d="M88 567l17 110q85 -6 167.5 -35t140.5 -84q63 -59 89 -136t26 -147q0 -137 -76 -218q-65 -69 -175 -69q-105 0 -172 64q-70 69 -70 169q0 96 67 161q58 57 145 57q71 0 123 -40q-34 80 -106 120q-73 41 -176 48zM282 110q40 0 68 27q34 34 34 82q0 52 -35 82
q-27 24 -71 24q-42 0 -70 -25q-35 -32 -35 -81q0 -47 32 -79q30 -30 77 -30z" />
    <glyph glyph-name="product" unicode="&#x220f;" horiz-adv-x="733" 
d="M43 630v120h653v-120h-82v-760h82v-120h-293v120h73v760h-212v-760h71v-120h-292v120h83v760h-83z" />
    <glyph glyph-name="summation" unicode="&#x2211;" horiz-adv-x="666" 
d="M23 750h599v-247h-117l-13 127h-315l250 -363l-250 -397h324l8 130h122v-250h-608v130l243 387l-243 353v130z" />
    <glyph glyph-name="minus" unicode="&#x2212;" 
d="M47 280v120h433v-120h-433z" />
    <glyph glyph-name="uni2215" unicode="&#x2215;" horiz-adv-x="729" 
d="M-60 -188l628 917h131l-629 -917h-130z" />
    <glyph glyph-name="uni2219" unicode="&#x2219;" horiz-adv-x="232" 
d="M128 457q49 0 83.5 -33.5t34.5 -81.5q0 -50 -33 -84.5t-82 -34.5q-47 0 -82 35t-35 83t33.5 82t80.5 34z" />
    <glyph glyph-name="radical" unicode="&#x221a;" horiz-adv-x="667" 
d="M415 827h291v-117h-178l-165 -710h-173l-56 271h-95v116h202l18 -84l3 -15q5 -37 6 -58q4 -39 4 -73h11q3 39 7 73q14 123 36 217z" />
    <glyph glyph-name="infinity" unicode="&#x221e;" horiz-adv-x="667" 
d="M502 176q-82 0 -152 79q-73 -79 -156 -79q-72 0 -118 46t-46 117t46 117t117 46q42 0 76.5 -18t74.5 -60q70 78 156 78q72 0 118 -45.5t46 -116.5q0 -72 -45.5 -118t-116.5 -46zM480 386q-34 0 -69 -47q35 -46 69 -46q21 0 35.5 13.5t14.5 33.5q0 19 -15 32.5t-35 13.5z
M215 293q33 0 68 46q-35 46 -69 46q-21 0 -35.5 -13.5t-14.5 -32.5t15 -32.5t36 -13.5z" />
    <glyph glyph-name="integral" unicode="&#x222b;" 
d="M143 -250q-35 0 -94 10l24 116q32 -10 55 -10q31 0 44.5 16.5t13.5 54.5v18v44v476q0 114 6 150t30 66q47 59 143 59q35 0 91 -10l-23 -116q-33 10 -56 10q-30 0 -44 -17t-14 -54v-62v-67v-409q0 -113 -6 -149.5t-30 -66.5q-47 -59 -140 -59z" />
    <glyph glyph-name="approxequal" unicode="&#x2248;" 
d="M164 401q-25 0 -39.5 -12t-33.5 -49l-71 47q24 61 49 91q39 48 103 48q29 0 103 -26q65 -24 86 -24q24 0 39 11t33 41l73 -43q-25 -54 -44.5 -78t-49.5 -40q-31 -16 -65 -16q-27 0 -102 28q-64 22 -81 22zM164 198q-25 0 -39.5 -12.5t-33.5 -48.5l-71 46q24 62 49 92
q39 48 103 48q29 0 103 -26q65 -24 86 -24q24 0 39 10.5t33 40.5l73 -42q-25 -54 -44.5 -78t-49.5 -40q-31 -16 -65 -16q-26 0 -102 27q-63 23 -81 23z" />
    <glyph glyph-name="notequal" unicode="&#x2260;" 
d="M45 471h228l55 108h102l-54 -108h102v-116h-155l-33 -67h188v-117h-241l-49 -95h-102l47 95h-88v117h141l34 67h-175v116z" />
    <glyph glyph-name="lessequal" unicode="&#x2264;" 
d="M34 462l433 207v-121l-296 -141l295 -141l1 -121l-433 208v109zM34 117h433v-117h-433v117z" />
    <glyph glyph-name="greaterequal" unicode="&#x2265;" 
d="M480 353l-434 -208v121l297 141l-296 141l-1 121l434 -207v-109zM480 0h-434v117h434v-117z" />
    <glyph glyph-name="dotmath" unicode="&#x22c5;" horiz-adv-x="232" 
d="M128 457q49 0 83.5 -33.5t34.5 -81.5q0 -50 -33 -84.5t-82 -34.5q-47 0 -82 35t-35 83t33.5 82t80.5 34z" />
    <glyph glyph-name="lozenge" unicode="&#x25ca;" horiz-adv-x="819" 
d="M87 334l259 359l260 -359l-260 -360zM454 334l-108 148l-107 -148l107 -148z" />
    <glyph glyph-name="openbullet" unicode="&#x25e6;" 
d="M284 356q-64 0 -109 45t-45 108q0 62 45 106.5t109 44.5t109.5 -44.5t45.5 -106.5q0 -63 -45.5 -108t-109.5 -45zM284 584q-31 0 -53.5 -22t-22.5 -53t22 -53.5t54 -22.5t54.5 22t22.5 53q0 32 -22.5 54t-54.5 22z" />
    <glyph glyph-name="uniF400" unicode="&#xf400;" horiz-adv-x="2" 
d="M-273 698h165l-132 -171h-113z" />
    <glyph glyph-name="uniF401" unicode="&#xf401;" horiz-adv-x="2" 
d="M-273 898h165l-132 -171h-113z" />
    <glyph glyph-name="uniF406" unicode="&#xf406;" 
d="M131 861q0 2 0.5 8.5t0.5 11.5h99q4 -62 65 -62q60 0 81 62h102q-13 -74 -60.5 -114t-123.5 -40q-72 0 -118 37.5t-46 96.5z" />
    <glyph glyph-name="uniF407" unicode="&#xf407;" 
d="M208 -46l112 -44l-136 -146l-92 40z" />
    <glyph glyph-name="uniF408" unicode="&#xf408;" 
d="M315 777l-107 -66l-70 69l192 122l150 -119l-82 -72z" />
    <glyph glyph-name="uniF409" unicode="&#xf409;" 
d="M200 -50l150 -16l-120 -194l-100 12z" />
    <glyph glyph-name="uniF40A" unicode="&#xf40a;" 
d="M220 680l150 -26l-140 -202l-100 18z" />
    <glyph glyph-name="uniF40B" unicode="&#xf40b;" 
d="M206 811q0 38 26.5 64.5t64.5 26.5t64.5 -26.5t26.5 -64.5t-26.5 -64.5t-64.5 -26.5t-64.5 26.5t-26.5 64.5z" />
    <glyph glyph-name="uniF40C" unicode="&#xf40c;" 
d="M302 727q-64 0 -99.5 26t-35.5 73q0 45 36 71.5t97 26.5q60 0 95 -26.5t35 -72.5q0 -45 -34.5 -71.5t-93.5 -26.5zM299 862q-50 0 -50 -37q0 -17 13.5 -27t35.5 -10q51 0 51 37t-50 37z" />
    <glyph glyph-name="uniF40D" unicode="&#xf40d;" 
d="M420 873l79 -46q-23 -44 -52 -69q-35 -31 -77 -31q-27 0 -66 15l-36 14q-41 15 -48 15q-33 0 -47 -42l-78 46q18 42 48 68q35 30 85 30q33 0 68 -14l29 -12q46 -18 50 -18q29 0 45 44z" />
    <glyph glyph-name="uniF40E" unicode="&#xf40e;" 
d="M322 -89l-32 -86q-31 -18 -71 -18q-35 0 -58 23t-23 56q0 42 36 78q19 19 46 36h73q-14 -10 -38 -34q-20 -23 -20 -39t10 -25q9 -9 25 -9q20 0 52 18z" />
    <glyph glyph-name="uniF4C6" unicode="&#xf4c6;" horiz-adv-x="655" 
d="M639 667l-89 -716q-12 -92 -53 -136q-43 -45 -147 -45q-46 0 -85 10l14 114q14 -6 34 -6q33 0 47 14q16 14 22 62l38 298q-73 -10 -126 -10q-115 0 -169 39q-55 41 -55 119q0 12 6 63l25 194h169l-21 -178q-2 -14 -2 -25q0 -35 22 -51q20 -14 80 -14q46 0 89 7l32 261
h169z" />
    <glyph glyph-name="uniF4C7" unicode="&#xf4c7;" horiz-adv-x="531" 
d="M497 447l-59 -483q-12 -107 -56 -150q-44 -44 -140 -44q-48 0 -85 9l14 116q13 -7 33 -7q34 0 49 16q15 15 20 60l23 190q-43 -11 -90 -11q-101 0 -143 42q-33 33 -33 90q0 6 3 39l16 133h159l-14 -107q-2 -16 -2 -24q0 -25 15 -36q14 -10 47 -10t57 7l21 170h165z" />
    <glyph glyph-name="uniF4CC" unicode="&#xf4cc;" horiz-adv-x="642" 
d="M45 667h182l126 -299l147 299h195l-382 -667h-183l118 200zM383 898h165l-132 -171h-113z" />
    <glyph glyph-name="uniF4CD" unicode="&#xf4cd;" horiz-adv-x="588" 
d="M427 447h188l-418 -676h-185l160 264l-158 412h183l48 -121q23 -57 37 -128q23 50 59 108zM358 698h165l-132 -171h-113z" />
    <glyph glyph-name="dollar.fitted" unicode="&#xf5f5;" horiz-adv-x="538" 
d="M488 214q0 -86 -54 -144.5t-149 -74.5l-13 -107h-100l13 105q-77 10 -172 70l75 126q80 -53 138 -53q40 0 65 18t25 47q0 22 -15 37t-62 39q-59 30 -85 49.5t-43 45.5q-25 39 -25 96q0 77 48 130.5t135 72.5l12 104h100l-12 -101q47 -7 76 -18t76 -40l-73 -127
q-65 49 -117 49q-34 0 -53.5 -15.5t-19.5 -41.5q0 -25 17 -41t67 -38q81 -37 113.5 -79t32.5 -109z" />
    <glyph glyph-name="Euro.fitted" unicode="&#xf5f6;" horiz-adv-x="693" 
d="M580 190l-20 -167q-73 -38 -167 -38q-129 0 -206 62q-79 63 -90 168h-78l47 90h30q2 30 7 50h-66l47 90h43q37 109 127 171q94 65 226 65q107 0 185 -44l-76 -146q-61 38 -136 38q-54 0 -95 -22q-41 -23 -57 -62h268l-47 -90h-250q-6 -25 -6 -50h229l-47 -90h-171
q11 -37 49 -58q36 -20 93 -20q95 0 161 53z" />
    <glyph glyph-name="cent.fitted" unicode="&#xf5f7;" horiz-adv-x="424" 
d="M353 125q-54 -21 -100 -24l-11 -91h-94l12 104q-64 21 -103.5 79t-39.5 132q0 98 56 166t152 84l9 85h94l-10 -84q47 -8 87 -28l-17 -141q-44 35 -92 35q-47 0 -78 -32t-31 -81q0 -40 25.5 -66t65.5 -26q45 0 92 29z" />
    <glyph glyph-name="sterling.fitted" unicode="&#xf5f8;" horiz-adv-x="633" 
d="M173 252h-125l12 96h72q-12 43 -12 79q0 103 67 174q74 78 198 78q105 0 163 -62q51 -54 51 -139q0 -30 -4 -50h-165q2 12 2 31q0 44 -17 63q-17 21 -48 21q-40 0 -62 -34q-20 -31 -20 -84q0 -41 14 -77h153l-12 -96h-125q0 -66 -17 -105l45 -14q10 -3 27.5 -9t27 -8.5
t19.5 -2.5q43 0 49 44h108q-8 -85 -53 -130q-41 -41 -112 -41q-41 0 -101 20l-35 12q-48 17 -83 17q-42 0 -53 -35h-115q11 60 45 100q39 47 100 57q12 31 12 58q0 21 -6 37z" />
    <glyph glyph-name="yen.fitted" unicode="&#xf5f9;" horiz-adv-x="655" 
d="M209 329h-163l13 105h100l-112 233h197l76 -192l120 192h200l-176 -233h105l-13 -105h-171l-7 -9l-6 -53h177l-13 -104h-177l-20 -163h-164l20 163h-169l13 104h169l6 53z" />
    <glyph glyph-name="florin.fitted" unicode="&#xf5fa;" horiz-adv-x="680" 
d="M234 113l60 238h-76l23 96h78l29 111q23 85 67 128q55 54 149 54q61 0 107 -25l-36 -139q-29 22 -59 22q-31 0 -49 -18q-15 -15 -29 -68l-17 -65h97l-25 -96h-97l-64 -257q-38 -158 -99 -216q-68 -66 -197 -66q-48 0 -87 9l37 146q23 -9 52 -9q48 0 75 22q35 28 61 133z
" />
    <glyph glyph-name="uni20B4.fitted" unicode="&#xf5fb;" horiz-adv-x="598" 
d="M167 498l-51 127q113 57 249 57q95 0 138 -33q45 -36 45 -95q0 -60 -42 -102h69l-11 -97h-151l-74 -63h217l-12 -97h-290q-19 -14 -19 -38q0 -18 14 -29q15 -12 53 -12q82 0 162 37l54 -118q-119 -56 -259 -56q-114 0 -162 33q-49 35 -49 94q0 52 33 89h-60l12 97h130
l74 63h-196l11 97h279q22 18 22 45q0 22 -15 34t-48 12q-63 0 -123 -45z" />
    <glyph glyph-name="uni20B6.fitted" unicode="&#xf5fc;" horiz-adv-x="637" 
d="M172 667h214q129 0 186 -57q51 -51 51 -145q0 -90 -50 -143q-67 -72 -221 -72h-62l-8 -63h180l-12 -97h-180l-11 -90h-169l11 90h-82l12 97h82l8 63h-82l13 110h82zM361 527h-37l-20 -166h43q58 0 83 28q19 23 19 59q0 39 -17 57q-19 22 -71 22z" />
    <glyph glyph-name="uni20B8.fitted" unicode="&#xf5fd;" horiz-adv-x="521" 
d="M473 380h-140l-48 -380h-168l47 380h-143l17 137h452zM494 560h-452l14 107h452z" />
    <glyph glyph-name="numbersign.fitted" unicode="&#xf5ff;" horiz-adv-x="671" 
d="M500 299h101l-32 -117h-102l-51 -182h-134l52 182h-84l-52 -182h-132l52 182h-102l33 117h101l23 83h-100l32 116h101l48 169h131l-47 -169h84l48 169h133l-48 -169h100l-32 -116h-100zM366 299l24 83h-85l-23 -83h84z" />
    <glyph glyph-name="uniF639" unicode="&#xf639;" horiz-adv-x="638" 
d="M345 682q115 0 186 -74.5t76 -202.5q1 -6 1 -18q0 -169 -84 -288q-82 -114 -223 -114q-125 0 -198 82t-73 223q0 173 88 282.5t227 109.5zM298 131q62 0 100.5 71.5t38.5 186.5q0 69 -23.5 107.5t-66.5 38.5q-62 0 -104.5 -70t-42.5 -173q0 -74 26 -117.5t72 -43.5z" />
    <glyph glyph-name="uniF63A" unicode="&#xf63a;" horiz-adv-x="609" 
d="M344 147h206l-19 -147h-509q112 102 183 177q59 60 108 120q90 108 90 163q0 34 -21 54.5t-55 20.5q-43 0 -62.5 -25.5t-24.5 -84.5h-172q10 118 67 179q73 78 199 78q112 0 177 -58.5t65 -158.5q0 -91 -55 -158q-21 -26 -54 -58q-46 -44 -123 -102z" />
    <glyph glyph-name="uniF63B" unicode="&#xf63b;" horiz-adv-x="597" 
d="M288 -15q-127 0 -196 62.5t-70 179.5h174v-14q0 -41 24.5 -63.5t67.5 -22.5t68 22t25 60q0 35 -23.5 56t-63.5 21q-11 0 -21 -1l16 126q22 -3 30 -3q35 0 57 20t22 52q0 29 -19.5 47t-50.5 18q-34 0 -52 -19t-24 -62h-173q16 115 82 168q62 50 165 50q111 0 174.5 -51.5
t63.5 -142.5q0 -51 -20 -84t-67 -58q41 -22 59 -54.5t18 -83.5q0 -99 -74 -161t-192 -62z" />
    <glyph glyph-name="uniF63C" unicode="&#xf63c;" horiz-adv-x="594" 
d="M547 125h-67l-16 -125h-154l15 125h-316l9 135l327 407h201l-50 -408h67zM182 259h160l12 99q9 75 26 160q-32 -48 -60 -84z" />
    <glyph glyph-name="uniF63D" unicode="&#xf63d;" horiz-adv-x="606" 
d="M213 667h360l-18 -147h-234l-27 -82q26 3 52 3q106 0 164.5 -52.5t58.5 -147.5q0 -111 -84 -183.5t-214 -72.5q-93 0 -174 34q-14 6 -77 38l48 153q54 -46 120 -67q45 -12 78 -12q58 0 94 29t36 76q0 48 -37 73.5t-105 25.5q-69 0 -158 -32z" />
    <glyph glyph-name="uniF63E" unicode="&#xf63e;" horiz-adv-x="598" 
d="M528 667l-209 -234q28 4 45 4q92 0 149.5 -58t57.5 -151q0 -107 -79 -175t-203 -68q-117 0 -193 64.5t-76 162.5q0 44 15 81q28 73 115 170l179 204h199zM398 224v4q-2 41 -30 66.5t-72 25.5q-47 0 -78 -28.5t-31 -72.5q0 -42 30 -70t75 -28q46 0 76 29t30 74z" />
    <glyph glyph-name="uniF63F" unicode="&#xf63f;" horiz-adv-x="595" 
d="M76 667h512l-369 -667h-185l204 367q42 78 92 153h-272z" />
    <glyph glyph-name="uniF640" unicode="&#xf640;" horiz-adv-x="587" 
d="M548 506q0 -56 -28 -89t-96 -57q51 -19 76.5 -40t39.5 -56q14 -34 14 -75q0 -93 -71.5 -148.5t-190.5 -55.5q-123 0 -194.5 53t-71.5 145q0 88 63 137q29 22 89 40q-86 49 -86 138q0 80 67 132t169 52q103 0 161.5 -47t58.5 -129zM319 432q31 0 51.5 19.5t20.5 48.5
q0 30 -19 48t-50 18t-52.5 -20t-21.5 -49q0 -28 20 -46.5t51 -18.5zM381 205v5q-3 31 -27.5 49.5t-62.5 18.5q-40 0 -66 -21.5t-26 -54.5t26 -54.5t66 -21.5q39 0 64.5 22.5t25.5 56.5z" />
    <glyph glyph-name="uniF641" unicode="&#xf641;" horiz-adv-x="599" 
d="M70 0l211 234q-28 -6 -39 -6q-92 0 -153.5 61t-61.5 153q0 106 80 173t205 67q118 0 192.5 -63t74.5 -164q0 -105 -103 -221l-207 -234h-199zM412 451v6q-3 39 -31 63.5t-70 24.5q-46 0 -78 -29.5t-32 -73.5q0 -41 29.5 -68t73.5 -27q47 0 77.5 29t30.5 75z" />
    <glyph glyph-name="uniF6BA" unicode="&#xf6ba;" horiz-adv-x="353" 
d="M45 274l16 133h253l-16 -133h-253z" />
    <glyph glyph-name="uniF6BB" unicode="&#xf6bb;" horiz-adv-x="574" 
d="M64 275l17 132h434l-17 -132h-434z" />
    <glyph glyph-name="uniF6BC" unicode="&#xf6bc;" horiz-adv-x="907" 
d="M64 275l17 132h767l-17 -132h-767z" />
    <glyph glyph-name="uniF6C3" unicode="&#xf6c3;" 
d="M200 -50l150 -16l-120 -184l-100 12z" />
    <glyph glyph-name="uniF6C9" unicode="&#xf6c9;" 
d="M308 898h165l-132 -171h-113z" />
    <glyph glyph-name="uniF6CA" unicode="&#xf6ca;" 
d="M209 902l88 -66l106 66l67 -72l-184 -119l-157 122z" />
    <glyph glyph-name="uniF6CB" unicode="&#xf6cb;" 
d="M398 887q32 0 56 -24t24 -56q0 -34 -23 -57t-56 -23q-34 0 -58 23.5t-24 57.5q0 32 24 55.5t57 23.5zM196 887q34 0 57 -23.5t23 -56.5q0 -34 -23 -57t-56 -23q-35 0 -58 23.5t-23 57.5q0 33 23 56t57 23z" />
    <glyph glyph-name="uniF6CE" unicode="&#xf6ce;" 
d="M232 727l-89 171h164l38 -171h-113z" />
    <glyph glyph-name="uniF6CF" unicode="&#xf6cf;" 
d="M188 898h151l-117 -171h-100zM388 898h151l-117 -171h-99z" />
    <glyph glyph-name="uniF6D0" unicode="&#xf6d0;" 
d="M94 749l12 98h376l-12 -98h-376z" />
    <glyph glyph-name="uniF6D1" unicode="&#xf6d1;" 
d="M360 898l108 -48q-22 -61 -77 -93q-48 -29 -128 -29q-86 0 -133 30q-51 32 -72 92l115 48q7 -31 28 -47q22 -19 65 -19q36 0 61 19q23 18 33 47z" />
    <glyph glyph-name="uniF6D4" unicode="&#xf6d4;" 
d="M329 677l109 -39q-16 -56 -66 -90q-47 -30 -122 -30q-84 0 -128 31q-46 32 -62 89l115 39q6 -30 21 -45q17 -18 52 -18q39 0 58 20q14 14 23 43z" />
    <glyph glyph-name="uniF6DC" unicode="&#xf6dc;" horiz-adv-x="336" 
d="M49 667h264l-83 -667h-168l64 520h-95z" />
    <glyph glyph-name="uniF6DE" unicode="&#xf6de;" horiz-adv-x="680" 
d="M48 199l13 132h575l-13 -132h-575z" />
    <glyph glyph-name="nbspace" horiz-adv-x="233" 
 />
    <glyph glyph-name="hyphenminus" horiz-adv-x="353" 
d="M45 202l16 133h253l-16 -133h-253z" />
    <glyph glyph-name="dotlessi1" horiz-adv-x="285" 
d="M87 447h165l-55 -447h-165z" />
    </font>
</defs>
</svg>
