<?xml version="1.0" standalone="no"?>
<!DOCTYPE svg PUBLIC "-//W3C//DTD SVG 1.1//EN" "http://www.w3.org/Graphics/SVG/1.1/DTD/svg11.dtd" >
<svg xmlns="http://www.w3.org/2000/svg" xmlns:xlink="http://www.w3.org/1999/xlink" version="1.1">
<metadata>
Created by FontForge 20170731 at Fri Mar 29 22:15:44 2013
 By Aleksey,,,
Copyright (c) 1995 ParaGraph Intl., (c) 1998 ParaType Inc., ParaType Ltd. All rights reserved.
</metadata>
<defs>
<font id="FuturaPT-BookObl" horiz-adv-x="500" >
  <font-face 
    font-family="Futura PT Book Italic"
    font-weight="400"
    font-style="italic"
    font-stretch="normal"
    units-per-em="1000"
    panose-1="2 11 5 2 2 2 4 9 3 3"
    ascent="763"
    descent="-237"
    x-height="415"
    cap-height="667"
    bbox="-305 -250 1091 926"
    underline-thickness="50"
    underline-position="-200"
    slope="-7"
    unicode-range="U+0020-FB02"
  />
<missing-glyph horiz-adv-x="233" 
 />
    <glyph glyph-name="afii10017.var.accented" unicode="&#x410;`" horiz-adv-x="622" 
d="M534 0l-55 188h-284l-103 -188h-84l393 699l213 -699h-80zM233 258h226l-80 267zM501 882l65 -45l-168 -117l-39 32z" />
    <glyph glyph-name="afii10022.var.accented" unicode="&#x415;`" horiz-adv-x="482" 
d="M514 667l-9 -70h-272l-24 -198h264l-9 -70h-264l-31 -259h272l-9 -70h-346l82 667h346zM431 882l65 -45l-168 -117l-39 32z" />
    <glyph glyph-name="afii10026.var.accented" unicode="&#x418;`" horiz-adv-x="710" 
d="M550 0l62 509l-530 -539l86 697h74l-63 -511l530 539l-85 -695h-74zM545 882l65 -45l-168 -117l-39 32z" />
    <glyph glyph-name="afii10032.var.accented" unicode="&#x41e;`" horiz-adv-x="800" 
d="M399 -12q-138 0 -222 87q-86 88 -86 221q0 169 114 277q109 105 274 105q139 0 224 -84q88 -86 88 -218q0 -80 -28.5 -155t-83.5 -128q-109 -105 -280 -105zM471 608q-125 0 -211 -79q-92 -86 -92 -219q0 -113 69 -184q66 -68 170 -68q134 0 216 80q43 42 67 102.5
t24 121.5q0 108 -70 178q-68 68 -173 68zM590 882l65 -45l-168 -117l-39 32z" />
    <glyph glyph-name="afii10037.var.accented" unicode="&#x423;`" horiz-adv-x="568" 
d="M90 667h85l160 -393l222 393h85l-383 -667h-80l108 186zM474 882l65 -45l-168 -117l-39 32z" />
    <glyph glyph-name="afii10045.var.accented" unicode="&#x42b;`" horiz-adv-x="710" 
d="M632 667h74l-82 -667h-74zM86 0l81 667h75l-34 -277h74q125 0 180 -56q45 -45 45 -119q0 -100 -61 -157q-62 -58 -194 -58h-166zM199 320l-30 -250h86q93 0 133 34q42 35 42 102q0 65 -45 93q-30 21 -110 21h-76zM545 882l65 -45l-168 -117l-39 32z" />
    <glyph glyph-name="afii10047.var.accented" unicode="&#x42d;`" horiz-adv-x="649" 
d="M114 520l11 92q47 28 90 44q59 22 124 22q134 0 214 -75q87 -80 87 -224q0 -193 -112 -300q-95 -91 -248 -91q-77 0 -140 23q-44 15 -83 44l11 90q34 -36 84 -60q58 -27 133 -27q119 0 189 69q68 67 83 183h-389l9 70h386q0 105 -67 170q-59 58 -161 58q-72 0 -137 -31
q-49 -24 -84 -57zM444 882l65 -45l-168 -117l-39 32z" />
    <glyph glyph-name="afii10048.var.accented" unicode="&#x42e;`" horiz-adv-x="993" 
d="M208 389h100q23 102 94 179q103 110 265 110q144 0 232 -88q85 -85 85 -225q0 -169 -112 -279q-101 -98 -255 -98q-146 0 -234 93q-86 91 -85 238h-99l-39 -319h-74l82 667h74zM659 608q-115 0 -195 -77q-40 -39 -65 -98t-25 -123q0 -108 70 -181q68 -71 180 -71
q116 0 193 72q40 37 65 97.5t25 130.5q0 103 -61 172q-31 35 -80.5 56.5t-106.5 21.5zM686 882l65 -45l-168 -117l-39 32z" />
    <glyph glyph-name="afii10049.var.accented" unicode="&#x42f;`" horiz-adv-x="510" 
d="M30 0l232 297q-65 8 -109 50q-42 41 -42 114q0 90 54 146q34 35 83 47.5t122 12.5h136l-82 -667h-74l36 292h-38l-226 -292h-92zM423 597h-72q-92 0 -130 -39q-32 -33 -32 -88q0 -63 45 -90q36 -22 96 -22h64zM445 882l65 -45l-168 -117l-39 32z" />
    <glyph glyph-name="afii10023.var.accented" unicode="&#x401;`" horiz-adv-x="482" 
d="M514 667l-9 -70h-272l-24 -198h264l-9 -70h-264l-31 -259h272l-9 -70h-346l82 667h346zM382 882l54 -37l-142 -119l-33 26zM158 781q0 19 14 36q15 18 40 18q17 0 30 -11t13 -30q0 -22 -15 -39t-38 -17q-20 0 -33 13q-11 11 -11 30zM417 781q0 21 14 36q16 18 40 18
q20 0 31 -11q12 -10 12 -30q0 -22 -15 -39t-38 -17q-20 0 -32 13q-12 12 -12 30z" />
    <glyph glyph-name="afii10065.var.accented" unicode="&#x430;`" horiz-adv-x="528" 
d="M432 356l7 59h72l-51 -415h-72l7 58q-24 -33 -52 -49q-37 -21 -86 -21q-86 0 -135 51q-54 57 -54 148q0 116 72 184q57 54 149 54q51 0 88 -20q35 -18 55 -49zM295 361q-59 0 -100 -39q-53 -50 -53 -130q0 -69 43 -109q32 -31 84 -31q65 0 103 41q47 49 47 135
q0 64 -39 100q-35 33 -85 33zM408 666l70 -34l-151 -135l-42 24z" />
    <glyph glyph-name="afii10070.var.accented" unicode="&#x435;`" horiz-adv-x="483" 
d="M395 139l61 -33q-34 -57 -77 -86q-49 -32 -120 -32q-87 0 -137 52q-55 57 -55 149q0 107 71 178q58 58 145 58q86 0 135 -49q61 -63 47 -183h-323q-1 -72 37 -110q31 -31 82 -31q47 0 80 23q31 22 54 64zM154 253h242q-2 50 -35 82q-27 26 -76 26q-56 0 -91 -35
q-29 -30 -40 -73zM385 666l70 -34l-151 -135l-42 24z" />
    <glyph glyph-name="afii10074.var.accented" unicode="&#x438;`" horiz-adv-x="492" 
d="M119 415h72l-34 -276l322 308l-55 -447h-72l34 279l-322 -308zM390 666l70 -34l-151 -135l-42 24z" />
    <glyph glyph-name="afii10080.var.accented" unicode="&#x43e;`" horiz-adv-x="528" 
d="M268 -12q-94 0 -148 57q-53 57 -53 145q0 103 75 173q68 62 166 62q95 0 152 -57q51 -51 51 -136q0 -112 -70 -180q-65 -64 -173 -64zM307 361q-66 0 -113 -46q-53 -51 -53 -130q0 -56 36 -94q37 -39 96 -39q69 0 113 48q50 53 50 131q0 56 -34 92q-36 38 -95 38z
M408 666l70 -34l-151 -135l-42 24z" />
    <glyph glyph-name="afii10085.var.accented" unicode="&#x443;`" horiz-adv-x="460" 
d="M39 -230l165 269l-145 376h80l110 -297l172 297h82l-384 -645h-80zM374 666l70 -34l-151 -135l-42 24z" />
    <glyph glyph-name="afii10093.var.accented" unicode="&#x44b;`" horiz-adv-x="562" 
d="M422 0l51 415h72l-51 -415h-72zM68 0l51 415h72l-20 -159h75q71 0 108 -32q35 -31 35 -85q0 -60 -36 -96q-42 -43 -126 -43h-86h-73zM148 64h75q45 0 68 17q24 19 24 51t-22 47q-18 13 -61 13h-68zM425 666l70 -34l-151 -135l-42 24z" />
    <glyph glyph-name="afii10095.var.accented" unicode="&#x44d;`" horiz-adv-x="426" 
d="M82 330l9 70q55 25 118 25q91 0 144 -49q56 -52 56 -147q0 -109 -65 -176q-64 -65 -172 -65q-75 0 -129 28l9 70q49 -34 115 -34q76 0 118 41q36 34 44 87h-219l8 64h217q-2 51 -39 83q-39 34 -105 34q-58 0 -109 -31zM307 666l70 -34l-151 -135l-42 24z" />
    <glyph glyph-name="afii10096.var.accented" unicode="&#x44e;`" horiz-adv-x="692" 
d="M170 245h74q16 65 66 115q67 65 166 65q88 0 144 -53q55 -53 55 -141q0 -112 -71 -182q-62 -61 -166 -61q-100 0 -153 57q-51 53 -51 134h-72l-22 -179h-72l51 415h72zM470 361q-66 0 -109 -43q-52 -52 -52 -132q0 -62 35 -97q36 -37 95 -37q67 0 110 45q51 51 51 133
q0 57 -35 94t-95 37zM490 666l70 -34l-151 -135l-42 24z" />
    <glyph glyph-name="afii10097.var.accented" unicode="&#x44f;`" horiz-adv-x="408" 
d="M20 0l150 171q-5 0 -15 2t-27.5 10t-30.5 20q-27 27 -27 71q0 64 39 101q41 40 137 40h145l-51 -415h-72l21 167h-40l-139 -167h-90zM296 227l15 124h-74q-46 0 -69 -16q-24 -17 -24 -48q0 -32 22 -46q21 -14 66 -14h64zM348 666l70 -34l-151 -135l-42 24z" />
    <glyph glyph-name="afii10071.var.accented" unicode="&#x451;`" horiz-adv-x="483" 
d="M395 139l61 -33q-34 -57 -77 -86q-49 -32 -120 -32q-87 0 -137 52q-55 57 -55 149q0 107 71 178q58 58 145 58q86 0 135 -49q61 -63 47 -183h-323q-1 -72 37 -110q31 -31 82 -31q47 0 80 23q31 22 54 64zM154 253h242q-2 50 -35 82q-27 26 -76 26q-56 0 -91 -35
q-29 -30 -40 -73zM364 543q0 23 17 40t40 17q19 0 31 -12q13 -12 13 -32q0 -22 -18 -40q-16 -16 -38 -16q-18 0 -32 12q-13 13 -13 31zM127 543q0 23 17 40t40 17q19 0 31 -12q13 -12 13 -32q0 -22 -18 -40q-16 -16 -38 -16q-18 0 -32 12q-13 13 -13 31zM358 666l59 -28
l-151 -135l-31 18z" />
    <glyph glyph-name="fi" unicode="fi" horiz-adv-x="459" 
d="M287 349h-102l-43 -349h-72l43 349h-40l8 66h40l19 156q10 83 48 123q44 47 121 47q80 0 122 -44q33 -35 33 -91q0 -24 -4 -52h-72q3 30 3 38q0 36 -22 56q-21 20 -62 20q-46 0 -69 -27q-20 -23 -26 -70l-19 -156h102zM371 415h72l-51 -415h-72z" />
    <glyph glyph-name="fl" unicode="fl" horiz-adv-x="459" 
d="M287 349h-102l-43 -349h-72l43 349h-40l8 66h40l19 156q10 83 48 123q45 47 123 47t120 -44q33 -35 33 -92q0 -25 -6 -70l-66 -535h-72l65 532q6 51 6 60q0 36 -22 56q-23 20 -61 20q-47 0 -70 -27q-20 -22 -26 -70l-19 -156h102z" />
    <glyph glyph-name=".notdef" horiz-adv-x="233" 
 />
    <glyph glyph-name=".null" horiz-adv-x="0" 
 />
    <glyph glyph-name="nonmarkingreturn" horiz-adv-x="333" 
 />
    <glyph glyph-name="space" unicode=" " horiz-adv-x="233" 
 />
    <glyph glyph-name="exclam" unicode="!" horiz-adv-x="281" 
d="M194 135h-72l65 532h72zM95 35q0 23 16 39q15 16 39 16q20 0 33 -13t13 -34q0 -23 -19 -40q-16 -13 -36 -13q-21 0 -34 13q-12 12 -12 32z" />
    <glyph glyph-name="quotedbl" unicode="&#x22;" horiz-adv-x="330" 
d="M216 667l-46 -268h-54l20 268h80zM358 667l-46 -268h-54l20 268h80z" />
    <glyph glyph-name="numbersign" unicode="#" horiz-adv-x="600" 
d="M394 0h-73l57 207h-136l-57 -207h-73l57 207h-110l19 66h110l36 133h-110l18 66h110l54 195h73l-54 -195h136l54 195h73l-54 -195h110l-18 -66h-110l-36 -133h110l-19 -66h-110zM397 273l36 133h-136l-36 -133h136z" />
    <glyph glyph-name="dollar" unicode="$" horiz-adv-x="568" 
d="M538 574l-63 -39q-5 30 -27 48q-18 16 -44 20l-27 -221q61 -23 98 -65q43 -49 43 -118q0 -89 -56 -147q-52 -55 -133 -62l-11 -91h-60l11 90q-69 0 -118 49t-56 122l74 20q5 -54 36 -87q27 -29 73 -34l33 271l-25 12q-54 26 -79 52q-38 39 -38 102q0 75 52 127
q54 54 133 54l10 86h60l-11 -88q43 -7 78 -35q33 -26 47 -66zM367 302l-29 -241q43 8 71 41q31 36 31 92q0 43 -25 72q-19 24 -48 36zM321 409l24 198q-40 -1 -68 -27q-33 -31 -33 -76q0 -36 24 -62q20 -21 53 -33z" />
    <glyph glyph-name="percent" unicode="%" horiz-adv-x="714" 
d="M144 10l471 670l37 -22l-472 -671zM559 283q63 0 103 -40q36 -36 36 -93q0 -72 -45 -117q-41 -40 -110 -40q-61 0 -98 36q-40 39 -40 97q0 66 44 112q45 45 110 45zM549 48q36 0 60 24q28 28 28 74q0 39 -25 62q-20 20 -57 20q-40 0 -65 -28t-25 -69q0 -39 24 -61t60 -22
zM252 673q63 0 103 -40q36 -36 36 -93q0 -72 -45 -117q-41 -40 -110 -40q-61 0 -98 36q-40 40 -40 97q0 66 44 112q45 45 110 45zM242 438q36 0 60 24q28 28 28 74q0 39 -25 62q-20 20 -57 20q-40 0 -65 -28t-25 -69q0 -39 24 -61t60 -22z" />
    <glyph glyph-name="ampersand" unicode="&#x26;" horiz-adv-x="638" 
d="M582 289l49 -45q-53 -57 -97 -99l94 -145h-92l-61 93q-51 -47 -96 -72q-57 -33 -125 -33q-84 0 -133 50q-46 48 -46 114q0 82 65 147q52 52 136 95l-21 37q-28 49 -28 96q0 66 41 109q41 42 114 42q66 0 103 -38q31 -31 31 -80q0 -52 -27 -89q-17 -24 -60 -55l-50 -36
l117 -179q50 45 86 88zM437 148l-124 191q-73 -38 -120 -85q-43 -45 -43 -96q0 -45 28 -73q29 -29 78 -29q51 0 101 30q34 20 80 62zM321 469l21 -35l41 28q28 18 45 38t17 49q0 31 -23 50q-18 15 -45 15q-34 0 -57 -21t-23 -57q0 -28 24 -67z" />
    <glyph glyph-name="quotesingle" unicode="'" horiz-adv-x="188" 
d="M216 667l-46 -268h-54l20 268h80z" />
    <glyph glyph-name="parenleft" unicode="(" horiz-adv-x="298" 
d="M261 740l60 -29q-60 -125 -101 -277q-42 -156 -42 -280q0 -153 37 -295l-66 -29q-45 163 -45 318q0 146 47 311q40 142 110 281z" />
    <glyph glyph-name="parenright" unicode=")" horiz-adv-x="298" 
d="M105 -170l-60 29q65 139 102 278q41 151 41 300q0 142 -37 274l66 29q45 -167 45 -308q0 -89 -9.5 -155.5t-34.5 -153.5q-46 -164 -113 -293z" />
    <glyph glyph-name="asterisk" unicode="*" horiz-adv-x="568" 
d="M219 648l110 -43l11 124h68l-21 -124l122 43l13 -63l-124 -34l65 -97l-59 -39l-56 103l-82 -103l-49 39l89 97l-116 34z" />
    <glyph glyph-name="plus" unicode="+" 
d="M74 300v66h181v172h72v-172h181v-66h-181v-172h-72v172h-181z" />
    <glyph glyph-name="comma" unicode="," horiz-adv-x="274" 
d="M8 -133l110 231l63 -24l-129 -226z" />
    <glyph glyph-name="hyphen" unicode="-" horiz-adv-x="320" 
d="M72 176l9 74h220l-9 -74h-220z" />
    <glyph glyph-name="period" unicode="." horiz-adv-x="229" 
d="M69 35q0 23 16 39q15 16 39 16q20 0 33 -13t13 -34q0 -23 -19 -40q-16 -13 -36 -13q-21 0 -34 13q-12 12 -12 32z" />
    <glyph glyph-name="slash" unicode="/" horiz-adv-x="605" 
d="M-19 -170l632 929l60 -30l-631 -927z" />
    <glyph glyph-name="zero" unicode="0" horiz-adv-x="568" 
d="M282 -12q-76 0 -126 51q-76 78 -76 225q0 102 33 195.5t91 151.5q66 67 156 67q76 0 128 -49q76 -72 76 -223q0 -106 -30 -201.5t-92 -155.5q-36 -34 -73 -47.5t-87 -13.5zM355 610q-58 0 -104 -46q-45 -45 -71 -125.5t-26 -163.5q0 -127 56 -185q33 -34 82 -34
q55 0 96 38q49 45 75.5 132t26.5 170q0 52 -13.5 103.5t-42.5 79.5q-31 31 -79 31z" />
    <glyph glyph-name="one" unicode="1" horiz-adv-x="568" 
d="M266 0l73 597h-112l48 70h147l-82 -667h-74z" />
    <glyph glyph-name="two" unicode="2" horiz-adv-x="568" 
d="M481 0h-431l278 279q76 76 100 109q40 55 40 109q0 51 -33 82t-89 31q-65 0 -100 -37q-37 -37 -42 -101h-74q12 92 69 148q60 58 153 58q86 0 139 -50q51 -48 51 -123q0 -82 -60 -159q-12 -15 -27.5 -32t-27 -28.5t-32 -31.5t-29.5 -29l-159 -157h282z" />
    <glyph glyph-name="three" unicode="3" horiz-adv-x="568" 
d="M225 502h-74q11 75 58 124q51 52 135 52q81 0 129 -44q49 -45 49 -126q0 -57 -28 -98q-31 -44 -77 -60q35 -18 55 -49q24 -37 24 -89q0 -100 -64 -165q-58 -59 -152 -59q-90 0 -139 50q-51 53 -56 135h74q3 -55 36 -88q30 -29 85 -29q62 0 98 36q42 42 42 116
q0 47 -31 78q-33 31 -88 31h-8l8 66h10q65 0 100 29q38 31 38 96q0 47 -28 74q-29 28 -80 28q-49 0 -81 -30q-30 -30 -35 -78z" />
    <glyph glyph-name="four" unicode="4" horiz-adv-x="568" 
d="M520 704l-62 -510h82l-9 -68h-82l-15 -126h-74l15 126h-342zM176 194h207l36 288z" />
    <glyph glyph-name="five" unicode="5" horiz-adv-x="568" 
d="M561 667l-8 -68h-214l-60 -145q107 17 176 -50q59 -57 59 -153q0 -117 -73 -192q-70 -71 -183 -71q-80 0 -132 35q-47 31 -79 85l64 42q19 -38 49 -62q41 -32 99 -32q84 0 131 49q50 52 50 143q0 68 -47 108q-41 35 -107 35q-68 0 -125 -41l135 317h265z" />
    <glyph glyph-name="six" unicode="6" horiz-adv-x="568" 
d="M416 683l55 -42l-173 -207q52 8 104 -7t88 -52q53 -54 53 -142q0 -108 -67 -175q-70 -70 -188 -70q-93 0 -149 53q-61 58 -61 150q0 68 35 129q23 40 75 99zM297 56q78 0 122 44q48 48 48 131q0 62 -39 99q-42 39 -110 39q-65 0 -114 -47q-51 -49 -51 -126q0 -58 38 -98
q39 -42 106 -42z" />
    <glyph glyph-name="seven" unicode="7" horiz-adv-x="568" 
d="M51 23l450 576h-361l8 68h490l-530 -683z" />
    <glyph glyph-name="eight" unicode="8" horiz-adv-x="568" 
d="M429 345q35 -16 57 -48q26 -38 26 -90q0 -99 -61 -160q-60 -60 -161 -60q-92 0 -142 52q-48 49 -48 132q0 70 36 118q32 43 87 61q-29 19 -44 46q-20 34 -20 79q0 92 54 148q54 55 143 55q82 0 129 -48q44 -45 44 -122q0 -59 -28 -102q-27 -42 -72 -61zM335 377
q53 0 87 32q36 34 36 94q0 50 -30 79q-28 28 -79 28q-52 0 -83 -31q-38 -36 -38 -96q0 -45 28 -75q29 -31 79 -31zM294 56q66 0 102 35q41 39 41 106q0 59 -37 89q-31 27 -86 27q-63 0 -99 -39q-39 -43 -39 -101q0 -54 31 -85q32 -32 87 -32z" />
    <glyph glyph-name="nine" unicode="9" horiz-adv-x="568" 
d="M228 -16l-51 41l175 208q-50 -10 -105 7t-91 53q-51 52 -51 132q0 113 71 184q69 69 178 69q101 0 162 -61q53 -53 53 -138q0 -63 -26 -116q-21 -44 -79 -109zM347 610q-72 0 -116 -44q-51 -49 -51 -135q0 -54 34 -91q41 -43 111 -43q71 0 120 51q49 52 49 124
q0 64 -44 102q-40 36 -103 36z" />
    <glyph glyph-name="colon" unicode=":" horiz-adv-x="229" 
d="M69 33q0 23 16 39q15 16 39 16q20 0 33 -13t13 -34q0 -23 -19 -40q-16 -13 -36 -13q-21 0 -34 13q-12 12 -12 32zM110 370q0 23 16 39q15 16 39 16q20 0 33 -13t13 -34q0 -23 -19 -40q-16 -13 -36 -13q-21 0 -34 13q-12 12 -12 32z" />
    <glyph glyph-name="semicolon" unicode=";" horiz-adv-x="274" 
d="M8 -133l110 231l63 -24l-129 -226zM123 370q0 23 16 39q15 16 39 16q20 0 33 -13t13 -34q0 -23 -19 -40q-16 -13 -36 -13q-21 0 -34 13q-12 12 -12 32z" />
    <glyph glyph-name="less" unicode="&#x3c;" 
d="M163 330l357 -162v-72l-434 203v62l434 203v-72z" />
    <glyph glyph-name="equal" unicode="=" 
d="M75 384v66h434v-66h-434zM75 230v66h434v-66h-434z" />
    <glyph glyph-name="greater" unicode="&#x3e;" 
d="M418 330l-357 162v72l434 -203v-62l-434 -203v72z" />
    <glyph glyph-name="question" unicode="?" horiz-adv-x="438" 
d="M323 289h72q0 -68 -42 -112q-41 -41 -109 -41q-65 0 -103 37q-34 34 -34 87q0 64 40 104q31 32 104 53l33 10q41 13 62 36q24 26 24 66q0 39 -26 62q-22 19 -59 19q-40 0 -65 -25q-27 -27 -27 -80q0 -9 2 -25h-74q-1 9 -1 25q0 79 49 128q46 45 122 45q75 0 115 -40
q38 -38 38 -104q0 -69 -43 -113q-35 -36 -87 -52l-44 -14q-51 -16 -69 -34q-21 -23 -21 -53q0 -33 19 -48q17 -16 50 -16q34 0 53 19q21 22 21 66zM173 30q0 23 16 39q15 16 39 16q20 0 33 -13t13 -34q0 -23 -19 -40q-16 -13 -36 -13q-21 0 -34 13q-12 12 -12 32z" />
    <glyph glyph-name="at" unicode="@" horiz-adv-x="737" 
d="M534 427l21 64h52l-66 -210q-12 -42 -12 -55q0 -20 10 -29q9 -9 24 -9q35 0 67 29q32 30 50.5 81t18.5 105q0 105 -71 167q-67 58 -171 58q-142 0 -237 -97q-95 -98 -95 -239q0 -111 67 -181q74 -76 214 -76q114 0 205 46l9 -46q-96 -48 -231 -48q-147 0 -235 91
q-80 83 -80 206q0 80 29 152t79 124q112 116 279 116q133 0 213 -80q73 -73 73 -181q0 -55 -19.5 -119t-60.5 -105q-49 -47 -104 -47q-33 0 -54 20t-21 47q-21 -32 -49 -49q-34 -22 -78 -22q-56 0 -91 35q-38 38 -38 106q0 98 69 169q54 54 126 54q49 0 78 -27
q20 -19 29 -50zM372 194q45 0 80 34q25 25 40 63t15 73q0 41 -24 65q-21 21 -55 21q-53 0 -90 -40q-22 -23 -34.5 -57.5t-12.5 -65.5q0 -50 28 -75q21 -18 53 -18z" />
    <glyph glyph-name="A" unicode="A" horiz-adv-x="622" 
d="M534 0l-55 188h-284l-103 -188h-84l393 699l213 -699h-80zM233 258h226l-80 267z" />
    <glyph glyph-name="B" unicode="B" horiz-adv-x="532" 
d="M168 667h109q115 0 166 -53q39 -39 39 -106q0 -55 -23 -96q-20 -36 -62 -56q41 -17 67 -43q41 -42 41 -111q0 -95 -61 -147q-64 -55 -184 -55h-174zM233 597l-27 -223h48q79 0 118 34q36 31 36 89q0 52 -37 78q-30 22 -89 22h-49zM198 308l-29 -238h90q85 0 125 29
q46 33 46 99q0 62 -49 90q-34 20 -108 20h-75z" />
    <glyph glyph-name="C" unicode="C" horiz-adv-x="650" 
d="M675 612l-11 -92q-35 39 -78 61q-53 27 -113 27q-130 0 -217 -87q-87 -89 -87 -214q0 -106 70 -180q66 -69 168 -69q73 0 127 28q45 23 84 59l-11 -92q-48 -33 -85 -47q-49 -18 -120 -18q-141 0 -227 88q-84 85 -84 223q0 169 112 278q104 101 270 101q76 0 131 -23
q34 -15 71 -43z" />
    <glyph glyph-name="D" unicode="D" horiz-adv-x="636" 
d="M86 0l82 667h121q169 0 257 -83q81 -79 81 -216q0 -167 -97 -266q-57 -59 -133 -80.5t-182 -21.5h-129zM233 597l-64 -527h49q175 0 254 79q77 77 77 213q0 105 -60 166q-67 69 -191 69h-65z" />
    <glyph glyph-name="E" unicode="E" horiz-adv-x="482" 
d="M514 667l-9 -70h-272l-24 -198h264l-9 -70h-264l-31 -259h272l-9 -70h-346l82 667h346z" />
    <glyph glyph-name="F" unicode="F" horiz-adv-x="434" 
d="M472 667l-9 -70h-230l-24 -197h222l-8 -70h-222l-41 -330h-74l82 667h304z" />
    <glyph glyph-name="G" unicode="G" horiz-adv-x="760" 
d="M465 265l8 70h278l-2 -16q-19 -148 -98 -232q-92 -99 -244 -99q-140 0 -228 88t-88 223q0 162 110 272q106 107 275 107q103 0 175 -46q59 -36 95 -99l-61 -50q-28 55 -81 89q-56 36 -129 36q-134 0 -219 -83q-44 -44 -66.5 -104t-22.5 -120q0 -104 69 -175
q66 -68 178 -68t178 68q53 53 71 139h-198z" />
    <glyph glyph-name="H" unicode="H" horiz-adv-x="662" 
d="M242 667l-33 -271h342l33 271h74l-82 -667h-74l40 326h-342l-40 -326h-74l82 667h74z" />
    <glyph glyph-name="I" unicode="I" horiz-adv-x="246" 
d="M168 667h74l-82 -667h-74z" />
    <glyph glyph-name="J" unicode="J" horiz-adv-x="299" 
d="M221 667h74l-59 -482q-14 -115 -55 -156t-116 -41q-37 0 -67 15q-27 13 -46 34l48 58q10 -12 30 -25q21 -12 43 -12q32 0 52 20q27 27 37 107z" />
    <glyph glyph-name="K" unicode="K" horiz-adv-x="568" 
d="M242 667l-35 -286l319 286h100l-354 -312l278 -355h-98l-235 306l-22 -19l-35 -287h-74l82 667h74z" />
    <glyph glyph-name="L" unicode="L" horiz-adv-x="358" 
d="M168 667h74l-73 -597h184l-9 -70h-258z" />
    <glyph glyph-name="M" unicode="M" horiz-adv-x="863" 
d="M140 0h-77l197 704l187 -563l331 564l17 -705h-75l-6 464l-287 -492l-164 492z" />
    <glyph glyph-name="N" unicode="N" horiz-adv-x="766" 
d="M160 0h-74l85 695l453 -547l64 519h74l-86 -697l-453 547z" />
    <glyph glyph-name="O" unicode="O" horiz-adv-x="800" 
d="M399 -12q-138 0 -222 87q-86 88 -86 221q0 169 114 277q109 105 274 105q139 0 224 -84q88 -86 88 -218q0 -80 -28.5 -155t-83.5 -128q-109 -105 -280 -105zM471 608q-125 0 -211 -79q-92 -86 -92 -219q0 -113 69 -184q66 -68 170 -68q134 0 216 80q43 42 67 102.5
t24 121.5q0 108 -70 178q-68 68 -173 68z" />
    <glyph glyph-name="P" unicode="P" horiz-adv-x="457" 
d="M168 667h121q108 0 161 -51q46 -44 46 -126q0 -90 -54 -142q-60 -58 -189 -58h-57l-36 -290h-74zM233 597l-29 -237h63q81 0 120 36q36 32 36 92q0 58 -37 85q-31 24 -98 24h-55z" />
    <glyph glyph-name="Q" unicode="Q" horiz-adv-x="800" 
d="M658 -7l-44 52q-90 -57 -206 -57q-146 0 -232 90q-85 89 -85 220q0 164 111 274q108 106 271 106q137 0 226 -85q92 -88 92 -225q0 -93 -34 -164q-29 -61 -88 -112l81 -99h-92zM516 268l104 -121q39 33 61 71q33 55 33 131q0 112 -67 184q-68 75 -175 75q-123 0 -213 -85
q-91 -87 -91 -218q0 -108 69 -179q65 -68 179 -68q83 0 149 44l-141 166h92z" />
    <glyph glyph-name="R" unicode="R" horiz-adv-x="505" 
d="M168 667h107q115 0 167 -49q48 -44 48 -119q0 -92 -53 -142q-53 -52 -140 -59l175 -298h-90l-167 292h-19l-36 -292h-74zM233 597l-29 -239h47q85 0 124 35t39 95q0 63 -45 90q-32 19 -94 19h-42z" />
    <glyph glyph-name="S" unicode="S" horiz-adv-x="518" 
d="M513 574l-63 -39q-11 31 -37 52q-28 21 -75 21q-52 0 -84 -28q-35 -32 -35 -79q0 -36 28 -61q17 -15 56 -35l60 -28q53 -24 85 -57q45 -46 45 -117q0 -93 -56 -151q-62 -64 -173 -64q-88 0 -138 50q-49 50 -56 122l74 20q3 -53 36 -87q34 -35 95 -35q68 0 104 37t36 97
q0 53 -36 85q-20 19 -65 40l-53 25q-53 23 -79 51q-38 40 -38 103q0 75 52 126q57 56 147 56q68 0 110 -28q41 -27 60 -76z" />
    <glyph glyph-name="T" unicode="T" horiz-adv-x="426" 
d="M485 597h-162l-73 -597h-74l73 597h-162l9 70h398z" />
    <glyph glyph-name="U" unicode="U" horiz-adv-x="646" 
d="M242 667l-48 -392q-7 -53 -7 -80q0 -62 43 -101q39 -36 112 -36q84 0 126 47q36 41 50 153l50 409h74l-53 -429q-8 -66 -23.5 -109.5t-54.5 -80.5q-63 -60 -177 -60q-104 0 -163 56q-58 56 -58 138q0 38 7 101l48 384h74z" />
    <glyph glyph-name="V" unicode="V" horiz-adv-x="556" 
d="M90 667h81l125 -509l251 509h83l-357 -707z" />
    <glyph glyph-name="W" unicode="W" horiz-adv-x="958" 
d="M90 667h81l115 -500l274 534l133 -534l256 500h83l-366 -702l-131 534l-275 -534z" />
    <glyph glyph-name="X" unicode="X" horiz-adv-x="502" 
d="M14 0l239 345l-139 322h82l107 -251l173 251h84l-223 -322l151 -345h-82l-119 274l-189 -274h-84z" />
    <glyph glyph-name="Y" unicode="Y" horiz-adv-x="530" 
d="M227 0l35 287l-172 380h84l133 -298l209 298h88l-268 -380l-35 -287h-74z" />
    <glyph glyph-name="Z" unicode="Z" horiz-adv-x="536" 
d="M594 667l-437 -597h354l-9 -70h-478l437 597h-317l9 70h441z" />
    <glyph glyph-name="bracketleft" unicode="[" horiz-adv-x="289" 
d="M328 663h-96l-94 -767h96l-8 -66h-168l111 899h168z" />
    <glyph glyph-name="backslash" unicode="\" horiz-adv-x="588" 
d="M569 -170l-57 -28l-404 927l58 30z" />
    <glyph glyph-name="bracketright" unicode="]" horiz-adv-x="289" 
d="M28 -104h96l94 767h-96l9 66h168l-111 -899h-168z" />
    <glyph glyph-name="asciicircum" unicode="^" 
d="M295 612l-146 -247h-78l177 302h94l177 -302h-78z" />
    <glyph glyph-name="underscore" unicode="_" 
d="M0 -132v64h500v-64h-500z" />
    <glyph glyph-name="grave" unicode="`" 
d="M310 497l-118 135l78 34l87 -145z" />
    <glyph glyph-name="a" unicode="a" horiz-adv-x="528" 
d="M432 356l7 59h72l-51 -415h-72l7 58q-24 -33 -52 -49q-37 -21 -86 -21q-86 0 -135 51q-54 57 -54 148q0 116 72 184q57 54 149 54q51 0 88 -20q35 -18 55 -49zM295 361q-59 0 -100 -39q-53 -50 -53 -130q0 -69 43 -109q32 -31 84 -31q65 0 103 41q47 49 47 135
q0 64 -39 100q-35 33 -85 33z" />
    <glyph glyph-name="b" unicode="b" horiz-adv-x="528" 
d="M147 60l-7 -60h-72l90 729h72l-46 -372q23 31 54 48q36 20 83 20q86 0 136 -49q54 -53 54 -141q0 -119 -72 -189q-59 -58 -150 -58q-54 0 -92 22q-31 19 -50 50zM290 52q55 0 94 37q53 52 53 134q0 63 -38 101q-35 37 -90 37q-57 0 -98 -40q-52 -50 -52 -126
q0 -66 42 -108q35 -35 89 -35z" />
    <glyph glyph-name="c" unicode="c" horiz-adv-x="440" 
d="M442 385l-10 -86q-26 29 -52 44q-33 18 -75 18q-65 0 -111 -43q-53 -51 -53 -126q0 -64 40 -104q36 -36 96 -36q42 0 77 18q31 16 58 47l-10 -86q-31 -23 -60 -32q-33 -11 -74 -11q-92 0 -146 55q-55 57 -55 145q0 104 72 174q63 63 168 63q76 0 135 -40z" />
    <glyph glyph-name="d" unicode="d" horiz-adv-x="528" 
d="M432 356l46 373h72l-90 -729h-72l7 58q-22 -33 -58 -52q-35 -18 -81 -18q-77 0 -127 47q-61 59 -61 153q0 51 19.5 99.5t52.5 80.5q59 57 148 57q50 0 90 -20q32 -17 54 -49zM291 361q-57 0 -97 -37q-52 -48 -52 -129q0 -65 39 -106q35 -37 92 -37q61 0 98 36
q48 48 48 131q0 65 -38 106q-33 36 -90 36z" />
    <glyph glyph-name="e" unicode="e" horiz-adv-x="483" 
d="M395 139l61 -33q-34 -57 -77 -86q-49 -32 -120 -32q-87 0 -137 52q-55 57 -55 149q0 107 71 178q58 58 145 58q86 0 135 -49q61 -63 47 -183h-323q-1 -72 37 -110q31 -31 82 -31q47 0 80 23q31 22 54 64zM154 253h242q-2 50 -35 82q-27 26 -76 26q-56 0 -91 -35
q-29 -30 -40 -73z" />
    <glyph glyph-name="f" unicode="f" horiz-adv-x="240" 
d="M287 349h-102l-43 -349h-72l43 349h-40l8 66h40l22 181q9 77 42 110q34 34 91 34q31 0 58 -9l-9 -70q-25 9 -44 9q-28 0 -44 -16q-18 -18 -23 -66l-21 -173h102z" />
    <glyph glyph-name="g" unicode="g" horiz-adv-x="526" 
d="M430 356l7 59h72l-49 -405q-5 -43 -9.5 -66.5t-18.5 -57t-37 -56.5q-58 -60 -162 -60q-91 0 -140 49q-47 48 -47 135v6h71v-4q0 -62 33 -93q31 -29 86 -29q68 0 105 37q17 17 27.5 42.5t13 41t5.5 43.5l6 60q-21 -33 -59 -52q-38 -18 -80 -18q-87 0 -137 53
q-52 53 -52 141q0 113 67 182q59 61 154 61q56 0 92 -20q32 -17 52 -49zM294 361q-59 0 -100 -38q-54 -51 -54 -136q0 -65 37 -102q33 -33 85 -33q62 0 102 36q26 23 39.5 62t13.5 76q0 61 -36 100q-33 35 -87 35z" />
    <glyph glyph-name="h" unicode="h" horiz-adv-x="469" 
d="M68 0l90 729h72l-45 -362q14 21 42 39q31 19 76 19q63 0 100 -36q33 -33 33 -93q0 -19 -6 -69l-28 -227h-72l25 207q6 51 6 71q0 41 -21 62t-58 21q-47 0 -74 -29q-30 -31 -41 -115l-27 -217h-72z" />
    <glyph glyph-name="i" unicode="i" horiz-adv-x="208" 
d="M119 415h72l-51 -415h-72zM123 566q0 22 14 38q15 19 43 19q20 0 32 -12q13 -13 13 -33q0 -24 -16 -40q-16 -17 -40 -17q-20 0 -34 14q-12 12 -12 31z" />
    <glyph glyph-name="j" unicode="j" horiz-adv-x="207" 
d="M119 415h72l-80 -645h-72zM122 566q0 22 14 38q15 19 43 19q20 0 32 -12q13 -13 13 -33q0 -24 -16 -40q-16 -17 -40 -17q-20 0 -34 14q-12 12 -12 31z" />
    <glyph glyph-name="k" unicode="k" horiz-adv-x="422" 
d="M158 729h72l-58 -468l171 154h94l-202 -178l181 -237h-92l-143 189l-20 -18l-21 -171h-72z" />
    <glyph glyph-name="l" unicode="l" horiz-adv-x="208" 
d="M158 729h72l-90 -729h-72z" />
    <glyph glyph-name="m" unicode="m" horiz-adv-x="684" 
d="M68 0l51 415h72l-5 -44q17 25 40 38q29 16 64 16q42 0 69 -17t42 -50q16 29 44 47q32 20 78 20q61 0 97 -35q33 -32 33 -85q0 -11 -8 -83l-27 -222h-72l28 222q6 46 6 62q0 37 -20 57t-52 20q-36 0 -62 -24q-30 -29 -39 -106l-28 -231h-72l30 246q9 69 -17 95
q-18 20 -53 20t-59 -24q-31 -31 -40 -111l-28 -226h-72z" />
    <glyph glyph-name="n" unicode="n" horiz-adv-x="469" 
d="M68 0l51 415h72l-6 -48q14 21 42 39q31 19 77 19q63 0 99 -36q33 -33 33 -93q0 -19 -6 -69l-28 -227h-72l25 207q6 51 6 71q0 41 -21 62t-58 21q-47 0 -74 -29q-30 -31 -41 -115l-27 -217h-72z" />
    <glyph glyph-name="o" unicode="o" horiz-adv-x="528" 
d="M268 -12q-94 0 -148 57q-53 57 -53 145q0 103 75 173q68 62 166 62q95 0 152 -57q51 -51 51 -136q0 -112 -70 -180q-65 -64 -173 -64zM307 361q-66 0 -113 -46q-53 -51 -53 -130q0 -56 36 -94q37 -39 96 -39q69 0 113 48q50 53 50 131q0 56 -34 92q-36 38 -95 38z" />
    <glyph glyph-name="p" unicode="p" horiz-adv-x="528" 
d="M147 58l-36 -288h-72l80 645h72l-7 -58q23 31 58 49q35 19 85 19q81 0 130 -48q54 -52 54 -143q0 -121 -73 -192q-55 -54 -149 -54q-58 0 -95 23q-28 18 -47 47zM287 52q56 0 94 35q56 52 56 142q0 61 -36 97q-33 35 -92 35q-62 0 -103 -44q-46 -49 -46 -126
q0 -60 34 -99q36 -40 93 -40z" />
    <glyph glyph-name="q" unicode="q" horiz-adv-x="529" 
d="M433 356l7 59h72l-80 -645h-72l36 288q-25 -34 -58 -51q-38 -19 -88 -19q-84 0 -132 52q-50 52 -50 138q0 119 72 189q59 58 159 58q49 0 85 -21q32 -18 49 -48zM294 361q-60 0 -99 -40q-52 -53 -52 -142q0 -58 34 -94q32 -33 86 -33q64 0 105 41q52 52 52 133
q0 61 -34 97q-34 38 -92 38z" />
    <glyph glyph-name="r" unicode="r" horiz-adv-x="296" 
d="M68 0l51 415h72l-6 -45q15 25 42 40t60 15q35 0 61 -17l-42 -65q-19 14 -43 14q-33 0 -55 -22q-30 -29 -41 -116l-27 -219h-72z" />
    <glyph glyph-name="s" unicode="s" horiz-adv-x="350" 
d="M339 350l-63 -31q-5 16 -17 28q-14 14 -36 14q-24 0 -40 -13q-16 -15 -16 -37q0 -17 12 -29q9 -9 41 -24l38 -19q32 -16 53 -37q27 -30 27 -74q0 -58 -35 -96q-41 -44 -119 -44q-54 0 -87 27q-36 30 -49 79l63 26q8 -31 25 -49q19 -19 50 -19q36 0 56 18q21 20 21 53
q0 26 -22 43q-10 8 -43 25l-23 11q-37 18 -55 38q-23 26 -23 65q0 50 35 85t94 35q44 0 75 -25q26 -21 38 -50z" />
    <glyph glyph-name="t" unicode="t" horiz-adv-x="214" 
d="M257 349h-72l-43 -349h-72l43 349h-44l8 66h44l18 150h72l-18 -150h72z" />
    <glyph glyph-name="u" unicode="u" horiz-adv-x="465" 
d="M190 415l-27 -219q-4 -38 -4 -54q0 -47 25 -69q24 -21 62 -21q40 0 67 25q11 11 18.5 29.5t10 33.5t6.5 45l28 230h72l-29 -238q-5 -36 -8.5 -55.5t-14.5 -46t-28 -44.5q-43 -43 -120 -43q-78 0 -121 38q-41 36 -41 105q0 17 6 71l26 213h72z" />
    <glyph glyph-name="v" unicode="v" horiz-adv-x="424" 
d="M59 415h78l90 -280l158 280h82l-258 -442z" />
    <glyph glyph-name="w" unicode="w" horiz-adv-x="682" 
d="M59 415h78l88 -282l169 314l90 -314l159 282h82l-261 -444l-89 310l-167 -310z" />
    <glyph glyph-name="x" unicode="x" horiz-adv-x="452" 
d="M8 0l204 222l-127 193h86l90 -141l126 141h88l-176 -194l145 -221h-86l-110 169l-152 -169h-88z" />
    <glyph glyph-name="y" unicode="y" horiz-adv-x="460" 
d="M39 -230l165 269l-145 376h80l110 -297l172 297h82l-384 -645h-80z" />
    <glyph glyph-name="z" unicode="z" horiz-adv-x="460" 
d="M503 415l-343 -349h288l-8 -66h-432l343 349h-242l8 66h386z" />
    <glyph glyph-name="braceleft" unicode="{" horiz-adv-x="503" 
d="M342 581l-23 -189q-5 -43 -21 -69q-20 -31 -54 -44q24 -10 36 -29q14 -20 14 -48l-3 -36l-22 -182q-4 -26 -4 -42q0 -31 22 -43q14 -8 51 -8h15l-8 -61h-27q-62 0 -90 19q-37 24 -37 78q0 20 5 55l22 166q3 21 3 36q0 32 -14 48q-13 16 -34 18l7 58q31 6 48 28
q14 17 20 61l24 196q11 81 58 113q33 23 99 23h27l-7 -61h-15q-45 0 -64 -16q-23 -19 -28 -71z" />
    <glyph glyph-name="bar" unicode="|" 
d="M214 -250v1000h72v-1000h-72z" />
    <glyph glyph-name="braceright" unicode="}" horiz-adv-x="503" 
d="M222 -22l23 188q6 47 22 72q20 31 53 41q-22 11 -34 27q-15 20 -15 50q0 19 5 64l16 134q5 39 5 55q0 33 -19 47q-17 12 -53 12h-15l7 61h27q64 0 91 -19q36 -24 36 -83q0 -18 -6 -68l-17 -137q-5 -45 -5 -50q0 -35 17 -50q12 -11 31 -14l-7 -58q-31 -3 -48 -27
q-17 -23 -20 -62l-24 -195q-8 -69 -40 -101q-36 -35 -118 -35h-27l8 61h15q47 0 66 17t26 70z" />
    <glyph glyph-name="asciitilde" unicode="~" 
d="M483 361l41 -26q-25 -44 -59 -73q-43 -39 -101 -39q-38 0 -108 36q-56 30 -88 30q-28 0 -53 -20q-23 -20 -41 -52l-41 26q27 50 57 78q39 38 95 38q41 0 115 -38q54 -28 84 -28q34 0 59 21q21 17 40 47z" />
    <glyph glyph-name="uni00A0" unicode="&#xa0;" horiz-adv-x="233" 
 />
    <glyph glyph-name="exclamdown" unicode="&#xa1;" horiz-adv-x="280" 
d="M150 302h72l-65 -532h-72zM147 392q0 23 16 39q15 16 39 16q20 0 33 -13t13 -34q0 -23 -19 -40q-16 -13 -36 -13q-21 0 -34 13q-12 12 -12 32z" />
    <glyph glyph-name="cent" unicode="&#xa2;" horiz-adv-x="568" 
d="M514 518l-10 -86q-18 24 -46 42q-24 15 -53 17l-37 -305q30 1 62 18q33 18 54 46l-10 -86q-52 -39 -114 -42l-13 -108h-60l13 110q-64 8 -106 52q-55 57 -55 145q0 48 19 94.5t53 79.5q57 57 143 62l12 98h60l-13 -100q54 -5 101 -37zM308 190l38 302q-54 -7 -92 -51
q-41 -48 -41 -115q0 -56 26 -90q24 -33 69 -46z" />
    <glyph glyph-name="sterling" unicode="&#xa3;" horiz-adv-x="568" 
d="M549 458h-73q3 16 3 32q0 54 -28 83q-31 33 -86 33q-60 0 -94 -36q-32 -32 -32 -88q0 -45 28 -119l19 -50h126l-7 -56h-107q7 -26 7 -50q0 -54 -34 -105l56 -23q49 -20 72 -20q30 0 53 23q21 19 35 46l56 -36q-27 -49 -61 -75q-35 -28 -86 -28q-40 0 -81 17l-29 12
q-55 23 -87 23q-28 0 -53 -20q-17 -14 -33 -34l-52 39q27 35 58 58q37 26 78 27q33 46 33 93q0 30 -9 53h-112l7 56h87l-13 37q-29 83 -29 126q0 82 55 140q57 60 151 60q84 0 135 -47t51 -129q0 -23 -4 -42z" />
    <glyph glyph-name="currency" unicode="&#xa4;" horiz-adv-x="667" 
d="M138 636l95 -94q59 51 145 51t145 -51l95 94l40 -40l-95 -95q51 -60 51 -142q0 -83 -51 -142l94 -94l-40 -40l-94 93q-59 -51 -145 -51t-145 51l-94 -93l-40 40l94 94q-51 59 -51 142t51 142l-95 95zM378 189q73 0 120 47q48 49 48 123t-49 123q-47 47 -119 47
q-73 0 -120 -47q-48 -48 -48 -123q0 -74 49 -123q47 -47 119 -47z" />
    <glyph glyph-name="yen" unicode="&#xa5;" horiz-adv-x="568" 
d="M565 384h-141l-62 -88h192l-7 -56h-198l-29 -240h-74l29 240h-195l7 56h189l-40 88h-138l7 56h106l-103 227h85l133 -298l209 298h89l-161 -227h109z" />
    <glyph glyph-name="brokenbar" unicode="&#xa6;" 
d="M214 390v360h72v-360h-72zM214 -250v360h72v-360h-72z" />
    <glyph glyph-name="section" unicode="&#xa7;" horiz-adv-x="566" 
d="M530 540h-72q2 10 2 28q0 49 -30 73q-26 22 -68 22q-48 0 -76 -28q-29 -27 -29 -70q0 -41 28 -67q17 -16 82 -42l26 -11q50 -21 75 -50q35 -40 35 -106q0 -63 -34 -105q-31 -39 -81 -57q31 -24 46 -51q17 -29 17 -67q0 -83 -49 -130q-51 -49 -136 -49q-69 0 -112 39
q-52 47 -52 146h72q0 -53 20 -82q25 -37 77 -37q49 0 77 28t28 72q0 37 -23 60q-16 18 -67 40l-33 14q-51 20 -82 54q-39 43 -39 106q0 61 32 103t87 61q-66 44 -66 123q0 74 50 122q51 50 136 50q73 0 115 -41q45 -43 45 -122q0 -17 -1 -26zM325 389q-56 0 -87 -33t-31 -84
q0 -44 28 -72q29 -29 79 -29q48 0 81 31q32 30 32 83q0 47 -29 76q-27 28 -73 28z" />
    <glyph glyph-name="dieresis" unicode="&#xa8;" 
d="M354 543q0 23 17 40t40 17q18 0 31 -12.5t13 -31.5q0 -22 -18 -40q-16 -16 -38 -16q-18 0 -31.5 12t-13.5 31zM180 543q0 23 17 40t40 17q18 0 31 -12.5t13 -31.5q0 -22 -18 -40q-16 -16 -38 -16q-18 0 -31.5 12t-13.5 31z" />
    <glyph glyph-name="copyright" unicode="&#xa9;" horiz-adv-x="740" 
d="M555 497v-80q-47 58 -122 58q-61 0 -102 -44q-36 -40 -36 -99q0 -64 37 -104q39 -43 100 -43q75 0 126 61v-81q-55 -40 -124 -40q-91 0 -149 57q-59 59 -59 146q0 88 59 149q58 58 148 58q70 0 122 -38zM756 334q0 -138 -94 -238q-101 -107 -251 -107t-251 107
q-94 100 -94 238q0 137 94 237q101 107 251 107t251 -107q94 -100 94 -237zM411 622q-54 0 -109 -22t-94 -60q-41 -40 -63.5 -95t-22.5 -111q0 -57 22.5 -112t63.5 -95q39 -38 94 -60t109 -22t109 22t94 60q41 40 63.5 95t22.5 112q0 56 -22.5 111t-63.5 95q-39 38 -94 60
t-109 22z" />
    <glyph glyph-name="ordfeminine" unicode="&#xaa;" horiz-adv-x="365" 
d="M334 627l4 34h51l-33 -266h-51l4 32q-13 -16 -34 -27q-25 -13 -54 -13q-55 0 -89 32q-36 34 -36 91q0 77 54 123q40 34 99 34q30 0 52 -11q19 -9 33 -29zM248 623q-41 0 -68 -27q-33 -31 -33 -80q0 -36 23 -61q22 -24 61 -24q40 0 66 28q29 31 29 80q0 38 -24 62
q-22 22 -54 22zM84 333h265l-5 -42h-265z" />
    <glyph glyph-name="guillemotleft" unicode="&#xab;" horiz-adv-x="430" 
d="M138 212l102 -146l-50 -36l-128 182l173 188l42 -37zM286 212l102 -146l-50 -36l-128 182l173 188l42 -37z" />
    <glyph glyph-name="logicalnot" unicode="&#xac;" 
d="M480 0h-70v203h-364v64h434v-267z" />
    <glyph glyph-name="uni00AD" unicode="&#xad;" horiz-adv-x="320" 
d="M72 176l9 74h220l-9 -74h-220z" />
    <glyph glyph-name="registered" unicode="&#xae;" horiz-adv-x="740" 
d="M548 145h-68l-122 158v-158h-54v374h68q83 0 116 -35q28 -28 28 -73q0 -46 -28 -72q-24 -24 -69 -31zM358 471v-120h22q47 0 65 17q17 16 17 43t-13 41q-17 19 -71 19h-20zM756 332q0 -138 -94 -238q-101 -107 -251 -107t-251 107q-94 100 -94 238q0 137 94 237
q101 107 251 107t251 -107q94 -100 94 -237zM411 620q-54 0 -109 -22t-94 -60q-41 -40 -63.5 -95t-22.5 -111q0 -57 22.5 -112t63.5 -95q39 -38 94 -60t109 -22t109 22t94 60q41 40 63.5 95t22.5 112q0 56 -22.5 111t-63.5 95q-39 38 -94 60t-109 22z" />
    <glyph glyph-name="macron" unicode="&#xaf;" 
d="M162 513l7 60h302l-7 -60h-302z" />
    <glyph glyph-name="degree" unicode="&#xb0;" horiz-adv-x="495" 
d="M173 520q0 64 43 109q39 40 101 40q64 0 99 -35q35 -34 35 -93q0 -70 -42 -110q-39 -38 -105 -38q-65 0 -100 39q-31 35 -31 88zM223 522q0 -38 22 -60q20 -23 61 -23q40 0 65 25q30 28 30 76q0 37 -25 62q-25 21 -60 21q-39 0 -65 -26q-28 -30 -28 -75z" />
    <glyph glyph-name="plusminus" unicode="&#xb1;" 
d="M62 345v66h181v171h72v-171h181v-66h-181v-171h-72v171h-181zM62 67v66h434v-66h-434z" />
    <glyph glyph-name="twosuperior" unicode="&#xb2;" horiz-adv-x="350" 
d="M329 267h-265l167 169q48 50 57 62q26 33 26 67q0 27 -18 44q-19 18 -54 18q-37 0 -58 -22q-21 -23 -23 -60h-50q5 57 43 94q35 34 93 34q55 0 87 -30t32 -75q0 -48 -42 -99q-17 -20 -64 -67l-88 -89h163z" />
    <glyph glyph-name="threesuperior" unicode="&#xb3;" horiz-adv-x="350" 
d="M84 376h50q0 -30 19 -51q18 -19 52 -19q36 0 57 21q23 25 23 64q0 31 -17 47t-54 16h-5l5 46h7q43 0 63 21q17 17 17 48q0 25 -14 41q-15 17 -46 17t-48 -17q-18 -18 -22 -47h-50q9 53 39 81q30 29 83 29q52 0 83 -28q28 -25 28 -72q0 -36 -18 -61q-17 -23 -45 -35
q21 -10 34 -30q13 -21 13 -51q0 -62 -37 -99q-36 -37 -100 -37q-49 0 -78 25q-37 33 -39 91z" />
    <glyph glyph-name="acute" unicode="&#xb4;" 
d="M394 666l70 -34l-151 -135l-42 24z" />
    <glyph glyph-name="mu" unicode="&#xb5;" horiz-adv-x="522" 
d="M111 -230h-72l79 645h72l-23 -188q-5 -35 -5 -69q0 -50 30 -79q29 -27 79 -27q53 0 88 34q38 37 50 131l24 198h72l-51 -415h-72l9 70q-18 -39 -46 -58q-32 -24 -82 -24q-51 0 -81 28q-23 20 -35 55z" />
    <glyph glyph-name="mu" unicode="&#x3bc;" horiz-adv-x="522" 
d="M111 -230h-72l79 645h72l-23 -188q-5 -35 -5 -69q0 -50 30 -79q29 -27 79 -27q53 0 88 34q38 37 50 131l24 198h72l-51 -415h-72l9 70q-18 -39 -46 -58q-32 -24 -82 -24q-51 0 -81 28q-23 20 -35 55z" />
    <glyph glyph-name="paragraph" unicode="&#xb6;" horiz-adv-x="581" 
d="M272 -95h-62l50 409h-15q-73 0 -119 44q-44 42 -44 111q0 84 54 137q61 61 189 61h268l-7 -58h-60l-87 -704h-62l87 704h-106z" />
    <glyph glyph-name="periodcentered" unicode="&#xb7;" horiz-adv-x="200" 
d="M78 333q0 29 22 51q19 20 47 20t44 -18q15 -15 15 -38q0 -30 -20 -50q-22 -22 -51 -22q-24 0 -39 14q-18 18 -18 43z" />
    <glyph glyph-name="cedilla" unicode="&#xb8;" 
d="M260 -52l62 -27l-116 -128l-46 24z" />
    <glyph glyph-name="onesuperior" unicode="&#xb9;" horiz-adv-x="350" 
d="M199 267l43 354h-78l30 46h106l-49 -400h-52z" />
    <glyph glyph-name="ordmasculine" unicode="&#xba;" horiz-adv-x="367" 
d="M254 667q63 0 101 -40q37 -37 37 -97q0 -57 -40 -97q-44 -44 -116 -44q-60 0 -100 38q-38 38 -38 92q0 66 48 109q42 39 108 39zM86 333h271l-5 -42h-271zM253 623q-46 0 -73 -25q-32 -29 -32 -76q0 -39 23 -64q25 -25 68 -25q42 0 69 23q33 29 33 78q0 38 -23 63
q-24 26 -65 26z" />
    <glyph glyph-name="guillemotright" unicode="&#xbb;" horiz-adv-x="430" 
d="M197 218l-102 146l50 36l128 -182l-173 -188l-42 37zM345 218l-102 146l50 36l128 -182l-173 -188l-42 37z" />
    <glyph glyph-name="onequarter" unicode="&#xbc;" horiz-adv-x="761" 
d="M199 267l43 354h-78l30 46h106l-49 -400h-52zM188 10l470 670l36 -22l-471 -671zM531 122h113l19 155zM731 422l-37 -300h49l-6 -46h-49l-9 -76h-50l9 76h-205z" />
    <glyph glyph-name="onehalf" unicode="&#xbd;" horiz-adv-x="761" 
d="M199 267l43 354h-78l30 46h106l-49 -400h-52zM148 10l470 670l36 -22l-471 -671zM707 0h-265l167 169q48 50 57 62q26 33 26 67q0 27 -18 44q-19 18 -54 18q-37 0 -58 -22q-21 -23 -23 -60h-50q5 57 43 94q35 34 93 34q55 0 87 -30t32 -75q0 -48 -42 -99q-17 -20 -64 -67
l-88 -89h163z" />
    <glyph glyph-name="threequarters" unicode="&#xbe;" horiz-adv-x="761" 
d="M84 376h50q0 -30 19 -51q18 -19 52 -19q36 0 57 21q23 25 23 64q0 31 -17 47t-54 16h-5l5 46h7q43 0 63 21q17 17 17 48q0 25 -14 41q-15 17 -46 17t-48 -17q-18 -18 -22 -47h-50q9 53 39 81q30 29 83 29q52 0 83 -28q28 -25 28 -72q0 -36 -18 -61q-17 -23 -45 -35
q21 -10 34 -30q13 -21 13 -51q0 -62 -37 -99q-36 -37 -100 -37q-49 0 -78 25q-37 33 -39 91zM208 10l470 670l36 -22l-471 -671zM731 422l-37 -300h49l-6 -46h-49l-9 -76h-50l9 76h-205zM531 122h113l19 155z" />
    <glyph glyph-name="questiondown" unicode="&#xbf;" horiz-adv-x="440" 
d="M177 147h-72q7 74 50 115q38 38 106 38q63 0 99 -36q35 -35 35 -90q0 -64 -41 -103q-30 -28 -101 -52l-46 -15q-38 -13 -58 -39q-18 -24 -18 -61q0 -35 22 -57q23 -21 56 -21q46 0 71 24q28 25 28 82q0 16 -1 24h74v-8q0 -93 -45 -141q-45 -49 -134 -49q-62 0 -102 36
q-44 40 -44 104q0 74 48 122q28 28 84 47l43 14q53 17 71 37q19 21 19 54q0 31 -19 45q-18 15 -48 15q-38 0 -58 -26q-17 -24 -19 -59zM227 392q0 23 16 39q15 16 39 16q20 0 33 -13t13 -34q0 -23 -19 -40q-16 -13 -36 -13q-21 0 -34 13q-12 12 -12 32z" />
    <glyph glyph-name="Agrave" unicode="&#xc0;" horiz-adv-x="622" 
d="M534 0l-55 188h-284l-103 -188h-84l393 699l213 -699h-80zM233 258h226l-80 267zM409 720l-138 117l75 45l110 -130z" />
    <glyph glyph-name="Aacute" unicode="&#xc1;" horiz-adv-x="622" 
d="M534 0l-55 188h-284l-103 -188h-84l393 699l213 -699h-80zM233 258h226l-80 267zM501 882l65 -45l-168 -117l-39 32z" />
    <glyph glyph-name="Acircumflex" unicode="&#xc2;" horiz-adv-x="622" 
d="M534 0l-55 188h-284l-103 -188h-84l393 699l213 -699h-80zM233 258h226l-80 267zM412 797l-97 -76l-51 41l154 119l126 -119l-53 -41z" />
    <glyph glyph-name="Atilde" unicode="&#xc3;" horiz-adv-x="622" 
d="M534 0l-55 188h-284l-103 -188h-84l393 699l213 -699h-80zM233 258h226l-80 267zM526 842l39 -35q-11 -23 -35 -44q-34 -28 -68 -28q-26 0 -54 15l-21 12q-26 15 -44 15q-19 0 -32 -14q-12 -12 -21 -30l-40 36q20 32 40 48q28 24 64 24q27 0 57 -17l25 -14q19 -11 35 -11
q19 0 34 14q13 13 21 29z" />
    <glyph glyph-name="Adieresis" unicode="&#xc4;" horiz-adv-x="622" 
d="M534 0l-55 188h-284l-103 -188h-84l393 699l213 -699h-80zM233 258h226l-80 267zM448 778q0 22 15 38q18 19 42 19q19 0 32 -12q13 -13 13 -31q0 -24 -16 -42q-17 -17 -40 -17q-21 0 -34 13q-12 12 -12 32zM258 778q0 22 15 38q18 19 42 19q18 0 32 -12q13 -13 13 -31
q0 -24 -16 -42q-17 -17 -40 -17q-21 0 -34 13q-12 12 -12 32z" />
    <glyph glyph-name="Aring" unicode="&#xc5;" horiz-adv-x="622" 
d="M534 0l-55 188h-284l-103 -188h-84l393 699l213 -699h-80zM233 258h226l-80 267zM319 809q0 42 29 71q26 26 67 26q37 0 61 -24q21 -24 21 -58q0 -41 -28 -69q-27 -25 -68 -25q-36 0 -58 21q-24 24 -24 58zM367 814q0 -16 10 -26q11 -11 28 -11q19 0 32 12q14 12 14 33
q0 19 -12 29q-10 10 -28 10q-19 0 -31 -12q-13 -13 -13 -35z" />
    <glyph glyph-name="AE" unicode="&#xc6;" horiz-adv-x="900" 
d="M538 0l-56 187h-284l-102 -187h-82l379 667h293l20 -70h-269l59 -198h264l20 -70h-262l77 -259h271l20 -70h-348zM239 257h223l-78 261z" />
    <glyph glyph-name="Ccedilla" unicode="&#xc7;" horiz-adv-x="650" 
d="M675 612l-11 -92q-35 39 -78 61q-53 27 -113 27q-130 0 -217 -87q-87 -89 -87 -214q0 -106 70 -180q66 -69 168 -69q73 0 127 28q45 23 84 59l-11 -92q-48 -33 -85 -47q-49 -18 -120 -18q-141 0 -227 88q-84 85 -84 223q0 169 112 278q104 101 270 101q76 0 131 -23
q34 -15 71 -43zM378 -52l66 -30l-120 -128l-47 26z" />
    <glyph glyph-name="Egrave" unicode="&#xc8;" horiz-adv-x="482" 
d="M514 667l-9 -70h-272l-24 -198h264l-9 -70h-264l-31 -259h272l-9 -70h-346l82 667h346zM359 720l-138 117l75 45l110 -130z" />
    <glyph glyph-name="Eacute" unicode="&#xc9;" horiz-adv-x="482" 
d="M514 667l-9 -70h-272l-24 -198h264l-9 -70h-264l-31 -259h272l-9 -70h-346l82 667h346zM440 882l65 -45l-168 -117l-39 32z" />
    <glyph glyph-name="Ecircumflex" unicode="&#xca;" horiz-adv-x="482" 
d="M514 667l-9 -70h-272l-24 -198h264l-9 -70h-264l-31 -259h272l-9 -70h-346l82 667h346zM362 797l-97 -76l-51 41l154 119l126 -119l-53 -41z" />
    <glyph glyph-name="Edieresis" unicode="&#xcb;" horiz-adv-x="482" 
d="M514 667l-9 -70h-272l-24 -198h264l-9 -70h-264l-31 -259h272l-9 -70h-346l82 667h346zM400 778q0 22 15 38q18 19 42 19q19 0 32 -12q13 -13 13 -31q0 -24 -16 -42q-17 -17 -40 -17q-21 0 -34 13q-12 12 -12 32zM210 778q0 22 15 38q18 19 42 19q19 0 32 -12
q13 -13 13 -31q0 -24 -16 -42q-17 -17 -40 -17q-21 0 -34 13q-12 12 -12 32z" />
    <glyph glyph-name="Igrave" unicode="&#xcc;" horiz-adv-x="246" 
d="M168 667h74l-82 -667h-74zM212 720l-138 117l75 45l110 -130z" />
    <glyph glyph-name="Iacute" unicode="&#xcd;" horiz-adv-x="246" 
d="M168 667h74l-82 -667h-74zM318 882l65 -45l-168 -117l-39 32z" />
    <glyph glyph-name="Icircumflex" unicode="&#xce;" horiz-adv-x="246" 
d="M168 667h74l-82 -667h-74zM223 797l-97 -76l-51 41l154 119l126 -119l-53 -41z" />
    <glyph glyph-name="Idieresis" unicode="&#xcf;" horiz-adv-x="246" 
d="M168 667h74l-82 -667h-74zM234 778q0 27 18 44q13 13 33 13q17 0 29 -12q12 -13 12 -35q0 -23 -16 -41q-14 -14 -34 -14q-18 0 -30 12t-12 33zM112 778q0 27 18 44q13 13 33 13q17 0 29 -12q12 -13 12 -35q0 -23 -16 -41q-14 -14 -34 -14q-18 0 -30 12t-12 33z" />
    <glyph glyph-name="Eth" unicode="&#xd0;" horiz-adv-x="634" 
d="M84 0l42 336h-86l8 64h86l32 267h121q169 0 257 -83q81 -79 81 -216q0 -167 -97 -266q-57 -59 -133 -80.5t-182 -21.5h-129zM231 597l-24 -197h136l-8 -64h-136l-32 -266h49q175 0 254 79q77 77 77 213q0 105 -60 166q-67 69 -191 69h-65z" />
    <glyph glyph-name="Ntilde" unicode="&#xd1;" horiz-adv-x="766" 
d="M160 0h-74l85 695l453 -547l64 519h74l-86 -697l-453 547zM598 842l39 -35q-11 -23 -35 -44q-34 -28 -68 -28q-26 0 -54 15l-21 12q-26 15 -44 15q-19 0 -32 -14q-12 -12 -21 -30l-40 36q20 32 40 48q28 24 64 24q27 0 57 -17l25 -14q19 -11 35 -11q19 0 34 14
q13 13 21 29z" />
    <glyph glyph-name="Ograve" unicode="&#xd2;" horiz-adv-x="800" 
d="M399 -12q-138 0 -222 87q-86 88 -86 221q0 169 114 277q109 105 274 105q139 0 224 -84q88 -86 88 -218q0 -80 -28.5 -155t-83.5 -128q-109 -105 -280 -105zM471 608q-125 0 -211 -79q-92 -86 -92 -219q0 -113 69 -184q66 -68 170 -68q134 0 216 80q43 42 67 102.5
t24 121.5q0 108 -70 178q-68 68 -173 68zM499 720l-138 117l75 45l110 -130z" />
    <glyph glyph-name="Oacute" unicode="&#xd3;" horiz-adv-x="800" 
d="M399 -12q-138 0 -222 87q-86 88 -86 221q0 169 114 277q109 105 274 105q139 0 224 -84q88 -86 88 -218q0 -80 -28.5 -155t-83.5 -128q-109 -105 -280 -105zM471 608q-125 0 -211 -79q-92 -86 -92 -219q0 -113 69 -184q66 -68 170 -68q134 0 216 80q43 42 67 102.5
t24 121.5q0 108 -70 178q-68 68 -173 68zM570 882l65 -45l-168 -117l-39 32z" />
    <glyph glyph-name="Ocircumflex" unicode="&#xd4;" horiz-adv-x="800" 
d="M399 -12q-138 0 -222 87q-86 88 -86 221q0 169 114 277q109 105 274 105q139 0 224 -84q88 -86 88 -218q0 -80 -28.5 -155t-83.5 -128q-109 -105 -280 -105zM471 608q-125 0 -211 -79q-92 -86 -92 -219q0 -113 69 -184q66 -68 170 -68q134 0 216 80q43 42 67 102.5
t24 121.5q0 108 -70 178q-68 68 -173 68zM499 797l-97 -76l-51 41l154 119l126 -119l-53 -41z" />
    <glyph glyph-name="Otilde" unicode="&#xd5;" horiz-adv-x="800" 
d="M399 -12q-138 0 -222 87q-86 88 -86 221q0 169 114 277q109 105 274 105q139 0 224 -84q88 -86 88 -218q0 -80 -28.5 -155t-83.5 -128q-109 -105 -280 -105zM471 608q-125 0 -211 -79q-92 -86 -92 -219q0 -113 69 -184q66 -68 170 -68q134 0 216 80q43 42 67 102.5
t24 121.5q0 108 -70 178q-68 68 -173 68zM612 842l39 -35q-11 -23 -35 -44q-34 -28 -68 -28q-26 0 -54 15l-21 12q-26 15 -44 15q-19 0 -32 -14q-12 -12 -21 -30l-40 36q20 32 40 48q28 24 64 24q27 0 57 -17l25 -14q19 -11 35 -11q19 0 34 14q13 13 21 29z" />
    <glyph glyph-name="Odieresis" unicode="&#xd6;" horiz-adv-x="800" 
d="M399 -12q-138 0 -222 87q-86 88 -86 221q0 169 114 277q109 105 274 105q139 0 224 -84q88 -86 88 -218q0 -80 -28.5 -155t-83.5 -128q-109 -105 -280 -105zM471 608q-125 0 -211 -79q-92 -86 -92 -219q0 -113 69 -184q66 -68 170 -68q134 0 216 80q43 42 67 102.5
t24 121.5q0 108 -70 178q-68 68 -173 68zM530 778q0 22 15 38q18 19 42 19q19 0 32 -12q13 -13 13 -31q0 -24 -16 -42q-17 -17 -40 -17q-21 0 -34 13q-12 12 -12 32zM340 778q0 22 15 38q18 19 42 19q19 0 32 -12q13 -13 13 -31q0 -24 -16 -42q-17 -17 -40 -17q-21 0 -34 13
q-12 12 -12 32z" />
    <glyph glyph-name="multiply" unicode="&#xd7;" 
d="M104 190l143 143l-149 149l47 47l149 -149l149 149l47 -47l-149 -149l143 -143l-47 -47l-143 143l-143 -143z" />
    <glyph glyph-name="Oslash" unicode="&#xd8;" horiz-adv-x="800" 
d="M828 635l-91 -81q55 -80 55 -178q0 -80 -28.5 -155t-83.5 -128q-109 -105 -278 -105q-126 0 -215 78l-89 -79l-43 50l90 80q-53 79 -53 179q0 168 114 277q110 105 274 105q125 0 213 -74l91 81zM205 170l428 381q-63 57 -161 57q-126 0 -211 -79q-92 -86 -92 -219
q0 -80 36 -140zM676 500l-430 -381q67 -61 162 -61q133 0 216 80q91 87 91 224q0 79 -39 138z" />
    <glyph glyph-name="Ugrave" unicode="&#xd9;" horiz-adv-x="646" 
d="M242 667l-48 -392q-7 -53 -7 -80q0 -62 43 -101q39 -36 112 -36q84 0 126 47q36 41 50 153l50 409h74l-53 -429q-8 -66 -23.5 -109.5t-54.5 -80.5q-63 -60 -177 -60q-104 0 -163 56q-58 56 -58 138q0 38 7 101l48 384h74zM419 720l-138 117l75 45l110 -130z" />
    <glyph glyph-name="Uacute" unicode="&#xda;" horiz-adv-x="646" 
d="M242 667l-48 -392q-7 -53 -7 -80q0 -62 43 -101q39 -36 112 -36q84 0 126 47q36 41 50 153l50 409h74l-53 -429q-8 -66 -23.5 -109.5t-54.5 -80.5q-63 -60 -177 -60q-104 0 -163 56q-58 56 -58 138q0 38 7 101l48 384h74zM506 882l65 -45l-168 -117l-39 32z" />
    <glyph glyph-name="Ucircumflex" unicode="&#xdb;" horiz-adv-x="646" 
d="M242 667l-48 -392q-7 -53 -7 -80q0 -62 43 -101q39 -36 112 -36q84 0 126 47q36 41 50 153l50 409h74l-53 -429q-8 -66 -23.5 -109.5t-54.5 -80.5q-63 -60 -177 -60q-104 0 -163 56q-58 56 -58 138q0 38 7 101l48 384h74zM425 797l-97 -76l-51 41l154 119l126 -119
l-53 -41z" />
    <glyph glyph-name="Udieresis" unicode="&#xdc;" horiz-adv-x="646" 
d="M242 667l-48 -392q-7 -53 -7 -80q0 -62 43 -101q39 -36 112 -36q84 0 126 47q36 41 50 153l50 409h74l-53 -429q-8 -66 -23.5 -109.5t-54.5 -80.5q-63 -60 -177 -60q-104 0 -163 56q-58 56 -58 138q0 38 7 101l48 384h74zM463 778q0 22 15 38q18 19 42 19q18 0 32 -12
q13 -13 13 -31q0 -24 -16 -42q-17 -17 -40 -17q-21 0 -34 13q-12 12 -12 32zM273 778q0 22 15 38q18 19 42 19q18 0 32 -12q13 -13 13 -31q0 -24 -16 -42q-17 -17 -40 -17q-21 0 -34 13q-12 12 -12 32z" />
    <glyph glyph-name="Yacute" unicode="&#xdd;" horiz-adv-x="530" 
d="M227 0l35 287l-172 380h84l133 -298l209 298h88l-268 -380l-35 -287h-74zM455 882l65 -45l-168 -117l-39 32z" />
    <glyph glyph-name="Thorn" unicode="&#xde;" horiz-adv-x="457" 
d="M168 667h74l-12 -100h46q108 0 161 -51q46 -44 46 -126q0 -90 -54 -142q-60 -58 -189 -58h-57l-23 -190h-74zM221 497l-29 -237h63q81 0 120 36q36 32 36 92q0 58 -37 85q-31 24 -98 24h-55z" />
    <glyph glyph-name="germandbls" unicode="&#xdf;" horiz-adv-x="529" 
d="M143 0h-72l43 349h-66l8 66h66l17 138q11 88 57 136q50 52 132 52q71 0 118 -45q44 -43 44 -116q0 -56 -27 -95q-24 -36 -67 -52q40 -16 79 -55q40 -47 40 -121q0 -115 -76 -188q-79 -77 -208 -81l8 70q87 5 143 56q57 52 57 134q0 65 -41 104q-44 42 -116 44l8 64
q60 0 95 34q32 29 32 86q0 47 -25 72t-67 25t-71 -27q-37 -36 -47 -129z" />
    <glyph glyph-name="agrave" unicode="&#xe0;" horiz-adv-x="528" 
d="M432 356l7 59h72l-51 -415h-72l7 58q-24 -33 -52 -49q-37 -21 -86 -21q-86 0 -135 51q-54 57 -54 148q0 116 72 184q57 54 149 54q51 0 88 -20q35 -18 55 -49zM295 361q-59 0 -100 -39q-53 -50 -53 -130q0 -69 43 -109q32 -31 84 -31q65 0 103 41q47 49 47 135
q0 64 -39 100q-35 33 -85 33zM310 497l-118 135l78 34l87 -145z" />
    <glyph glyph-name="aacute" unicode="&#xe1;" horiz-adv-x="528" 
d="M432 356l7 59h72l-51 -415h-72l7 58q-24 -33 -52 -49q-37 -21 -86 -21q-86 0 -135 51q-54 57 -54 148q0 116 72 184q57 54 149 54q51 0 88 -20q35 -18 55 -49zM295 361q-59 0 -100 -39q-53 -50 -53 -130q0 -69 43 -109q32 -31 84 -31q65 0 103 41q47 49 47 135
q0 64 -39 100q-35 33 -85 33zM394 666l70 -34l-151 -135l-42 24z" />
    <glyph glyph-name="acircumflex" unicode="&#xe2;" horiz-adv-x="528" 
d="M432 356l7 59h72l-51 -415h-72l7 58q-24 -33 -52 -49q-37 -21 -86 -21q-86 0 -135 51q-54 57 -54 148q0 116 72 184q57 54 149 54q51 0 88 -20q35 -18 55 -49zM295 361q-59 0 -100 -39q-53 -50 -53 -130q0 -69 43 -109q32 -31 84 -31q65 0 103 41q47 49 47 135
q0 64 -39 100q-35 33 -85 33zM331 578l-102 -81l-46 36l153 121l123 -121l-46 -36z" />
    <glyph glyph-name="atilde" unicode="&#xe3;" horiz-adv-x="528" 
d="M432 356l7 59h72l-51 -415h-72l7 58q-24 -33 -52 -49q-37 -21 -86 -21q-86 0 -135 51q-54 57 -54 148q0 116 72 184q57 54 149 54q51 0 88 -20q35 -18 55 -49zM295 361q-59 0 -100 -39q-53 -50 -53 -130q0 -69 43 -109q32 -31 84 -31q65 0 103 41q47 49 47 135
q0 64 -39 100q-35 33 -85 33zM199 497l-38 34q16 24 40 45q29 24 62 24q27 0 65 -20l17 -9q22 -11 37 -11q20 0 35 15q9 11 20 28l37 -34q-18 -32 -36 -47q-25 -22 -61 -22q-25 0 -55 14l-22 11q-32 15 -44 15q-18 0 -34 -16q-18 -16 -23 -27z" />
    <glyph glyph-name="adieresis" unicode="&#xe4;" horiz-adv-x="528" 
d="M432 356l7 59h72l-51 -415h-72l7 58q-24 -33 -52 -49q-37 -21 -86 -21q-86 0 -135 51q-54 57 -54 148q0 116 72 184q57 54 149 54q51 0 88 -20q35 -18 55 -49zM295 361q-59 0 -100 -39q-53 -50 -53 -130q0 -69 43 -109q32 -31 84 -31q65 0 103 41q47 49 47 135
q0 64 -39 100q-35 33 -85 33zM371 543q0 23 17 40t40 17q18 0 31 -12.5t13 -31.5q0 -22 -18 -40q-16 -16 -38 -16q-18 0 -31.5 12t-13.5 31zM197 543q0 23 17 40t40 17q18 0 31 -12.5t13 -31.5q0 -22 -18 -40q-16 -16 -38 -16q-18 0 -31.5 12t-13.5 31z" />
    <glyph glyph-name="aring" unicode="&#xe5;" horiz-adv-x="528" 
d="M432 356l7 59h72l-51 -415h-72l7 58q-24 -33 -52 -49q-37 -21 -86 -21q-86 0 -135 51q-54 57 -54 148q0 116 72 184q57 54 149 54q51 0 88 -20q35 -18 55 -49zM295 361q-59 0 -100 -39q-53 -50 -53 -130q0 -69 43 -109q32 -31 84 -31q65 0 103 41q47 49 47 135
q0 64 -39 100q-35 33 -85 33zM235 575q0 45 27 70q24 24 63 24t61 -22t22 -60q0 -40 -25 -65q-26 -25 -67 -25q-38 0 -59 21q-22 22 -22 57zM280 579q0 -16 10 -26q10 -12 30 -12q19 0 31 12q13 13 13 34q0 19 -11 28q-10 10 -29 10t-31 -12q-13 -13 -13 -34z" />
    <glyph glyph-name="ae" unicode="&#xe6;" horiz-adv-x="776" 
d="M415 348q26 34 66 55q44 22 97 22q85 0 132 -49q61 -63 47 -182h-327v-8q0 -64 37 -103q31 -31 82 -31t84 23q31 22 54 64l61 -33q-34 -57 -77 -86q-46 -32 -120 -32q-63 0 -103 24q-33 19 -58 59q-26 -42 -65 -62q-39 -21 -104 -21q-76 0 -116 29q-48 32 -48 95
q0 73 58 114q48 34 127 34q70 0 121 -35q8 82 -26 112q-26 24 -84 24q-57 0 -123 -26l8 68q63 22 128 22q60 0 99 -22q35 -20 50 -55zM240 196q-53 0 -83 -23q-27 -20 -27 -53q0 -32 27 -51q25 -17 75 -17q42 0 76 17q38 21 38 62q0 32 -30 49q-26 16 -76 16zM443 254h247
q-1 49 -35 81q-28 26 -78 26q-59 0 -94 -35q-29 -29 -40 -72z" />
    <glyph glyph-name="ccedilla" unicode="&#xe7;" horiz-adv-x="440" 
d="M442 385l-10 -86q-26 29 -52 44q-33 18 -75 18q-65 0 -111 -43q-53 -51 -53 -126q0 -64 40 -104q36 -36 96 -36q42 0 77 18q31 16 58 47l-10 -86q-31 -23 -60 -32q-33 -11 -74 -11q-92 0 -146 55q-55 57 -55 145q0 104 72 174q63 63 168 63q76 0 135 -40zM240 -52l62 -27
l-116 -128l-46 24z" />
    <glyph glyph-name="egrave" unicode="&#xe8;" horiz-adv-x="483" 
d="M395 139l61 -33q-34 -57 -77 -86q-49 -32 -120 -32q-87 0 -137 52q-55 57 -55 149q0 107 71 178q58 58 145 58q86 0 135 -49q61 -63 47 -183h-323q-1 -72 37 -110q31 -31 82 -31q47 0 80 23q31 22 54 64zM154 253h242q-2 50 -35 82q-27 26 -76 26q-56 0 -91 -35
q-29 -30 -40 -73zM310 497l-118 135l78 34l87 -145z" />
    <glyph glyph-name="eacute" unicode="&#xe9;" horiz-adv-x="483" 
d="M395 139l61 -33q-34 -57 -77 -86q-49 -32 -120 -32q-87 0 -137 52q-55 57 -55 149q0 107 71 178q58 58 145 58q86 0 135 -49q61 -63 47 -183h-323q-1 -72 37 -110q31 -31 82 -31q47 0 80 23q31 22 54 64zM154 253h242q-2 50 -35 82q-27 26 -76 26q-56 0 -91 -35
q-29 -30 -40 -73zM374 666l70 -34l-151 -135l-42 24z" />
    <glyph glyph-name="ecircumflex" unicode="&#xea;" horiz-adv-x="483" 
d="M395 139l61 -33q-34 -57 -77 -86q-49 -32 -120 -32q-87 0 -137 52q-55 57 -55 149q0 107 71 178q58 58 145 58q86 0 135 -49q61 -63 47 -183h-323q-1 -72 37 -110q31 -31 82 -31q47 0 80 23q31 22 54 64zM154 253h242q-2 50 -35 82q-27 26 -76 26q-56 0 -91 -35
q-29 -30 -40 -73zM305 578l-102 -81l-46 36l153 121l123 -121l-46 -36z" />
    <glyph glyph-name="edieresis" unicode="&#xeb;" horiz-adv-x="483" 
d="M395 139l61 -33q-34 -57 -77 -86q-49 -32 -120 -32q-87 0 -137 52q-55 57 -55 149q0 107 71 178q58 58 145 58q86 0 135 -49q61 -63 47 -183h-323q-1 -72 37 -110q31 -31 82 -31q47 0 80 23q31 22 54 64zM154 253h242q-2 50 -35 82q-27 26 -76 26q-56 0 -91 -35
q-29 -30 -40 -73zM333 543q0 23 17 40t40 17q18 0 31 -12.5t13 -31.5q0 -22 -18 -40q-16 -16 -38 -16q-18 0 -31.5 12t-13.5 31zM159 543q0 23 17 40t40 17q18 0 31 -12.5t13 -31.5q0 -22 -18 -40q-16 -16 -38 -16q-18 0 -31.5 12t-13.5 31z" />
    <glyph glyph-name="igrave" unicode="&#xec;" horiz-adv-x="208" 
d="M119 415h72l-51 -415h-72zM170 493l-105 147l80 27l72 -153z" />
    <glyph glyph-name="iacute" unicode="&#xed;" horiz-adv-x="208" 
d="M119 415h72l-51 -415h-72zM227 667l74 -27l-141 -147l-45 21z" />
    <glyph glyph-name="icircumflex" unicode="&#xee;" horiz-adv-x="208" 
d="M119 415h72l-51 -415h-72zM174 572l-83 -67l-39 35l131 106l105 -106l-47 -35z" />
    <glyph glyph-name="idieresis" unicode="&#xef;" horiz-adv-x="208" 
d="M119 415h72l-51 -415h-72zM204 543q0 23 17 40t40 17q18 0 31 -12.5t13 -31.5q0 -22 -18 -40q-16 -16 -38 -16q-18 0 -31.5 12t-13.5 31zM30 543q0 23 17 40t40 17q18 0 31 -12.5t13 -31.5q0 -22 -18 -40q-16 -16 -38 -16q-18 0 -31.5 12t-13.5 31z" />
    <glyph glyph-name="eth" unicode="&#xf0;" horiz-adv-x="519" 
d="M161 612l25 61q115 -9 202 -71l128 39l17 -51l-98 -31q34 -34 57 -85q28 -64 28 -148q0 -97 -18.5 -163t-66.5 -112q-66 -63 -170 -63q-85 0 -138 53q-59 59 -59 149q0 104 67 176q65 71 173 71q77 0 134 -48q-11 83 -83 146l-191 -60l-14 54l146 45q-64 35 -139 38z
M439 241q0 59 -37 96q-36 36 -94 36q-67 0 -112 -43q-52 -50 -52 -140q0 -65 37 -102q36 -36 92 -36q69 0 114 45q52 52 52 144z" />
    <glyph glyph-name="ntilde" unicode="&#xf1;" horiz-adv-x="469" 
d="M68 0l51 415h72l-6 -48q14 21 42 39q31 19 77 19q63 0 99 -36q33 -33 33 -93q0 -19 -6 -69l-28 -227h-72l25 207q6 51 6 71q0 41 -21 62t-58 21q-47 0 -74 -29q-30 -31 -41 -115l-27 -217h-72zM179 497l-38 34q16 24 40 45q29 24 62 24q27 0 65 -20l17 -9q22 -11 37 -11
q20 0 35 15q9 11 20 28l37 -34q-18 -32 -36 -47q-25 -22 -61 -22q-25 0 -55 14l-22 11q-32 15 -44 15q-18 0 -34 -16q-18 -16 -23 -27z" />
    <glyph glyph-name="ograve" unicode="&#xf2;" horiz-adv-x="528" 
d="M268 -12q-94 0 -148 57q-53 57 -53 145q0 103 75 173q68 62 166 62q95 0 152 -57q51 -51 51 -136q0 -112 -70 -180q-65 -64 -173 -64zM307 361q-66 0 -113 -46q-53 -51 -53 -130q0 -56 36 -94q37 -39 96 -39q69 0 113 48q50 53 50 131q0 56 -34 92q-36 38 -95 38z
M322 497l-118 135l78 34l87 -145z" />
    <glyph glyph-name="oacute" unicode="&#xf3;" horiz-adv-x="528" 
d="M268 -12q-94 0 -148 57q-53 57 -53 145q0 103 75 173q68 62 166 62q95 0 152 -57q51 -51 51 -136q0 -112 -70 -180q-65 -64 -173 -64zM307 361q-66 0 -113 -46q-53 -51 -53 -130q0 -56 36 -94q37 -39 96 -39q69 0 113 48q50 53 50 131q0 56 -34 92q-36 38 -95 38z
M406 666l70 -34l-151 -135l-42 24z" />
    <glyph glyph-name="ocircumflex" unicode="&#xf4;" horiz-adv-x="528" 
d="M268 -12q-94 0 -148 57q-53 57 -53 145q0 103 75 173q68 62 166 62q95 0 152 -57q51 -51 51 -136q0 -112 -70 -180q-65 -64 -173 -64zM307 361q-66 0 -113 -46q-53 -51 -53 -130q0 -56 36 -94q37 -39 96 -39q69 0 113 48q50 53 50 131q0 56 -34 92q-36 38 -95 38z
M331 578l-102 -81l-46 36l153 121l123 -121l-46 -36z" />
    <glyph glyph-name="otilde" unicode="&#xf5;" horiz-adv-x="528" 
d="M268 -12q-94 0 -148 57q-53 57 -53 145q0 103 75 173q68 62 166 62q95 0 152 -57q51 -51 51 -136q0 -112 -70 -180q-65 -64 -173 -64zM307 361q-66 0 -113 -46q-53 -51 -53 -130q0 -56 36 -94q37 -39 96 -39q69 0 113 48q50 53 50 131q0 56 -34 92q-36 38 -95 38z
M211 497l-38 34q16 24 40 45q29 24 62 24q27 0 65 -20l17 -9q22 -11 37 -11q20 0 35 15q9 11 20 28l37 -34q-18 -32 -36 -47q-25 -22 -61 -22q-25 0 -55 14l-22 11q-32 15 -44 15q-18 0 -34 -16q-18 -16 -23 -27z" />
    <glyph glyph-name="odieresis" unicode="&#xf6;" horiz-adv-x="528" 
d="M268 -12q-94 0 -148 57q-53 57 -53 145q0 103 75 173q68 62 166 62q95 0 152 -57q51 -51 51 -136q0 -112 -70 -180q-65 -64 -173 -64zM307 361q-66 0 -113 -46q-53 -51 -53 -130q0 -56 36 -94q37 -39 96 -39q69 0 113 48q50 53 50 131q0 56 -34 92q-36 38 -95 38z
M366 543q0 23 17 40t40 17q18 0 31 -12.5t13 -31.5q0 -22 -18 -40q-16 -16 -38 -16q-18 0 -31.5 12t-13.5 31zM192 543q0 23 17 40t40 17q18 0 31 -12.5t13 -31.5q0 -22 -18 -40q-16 -16 -38 -16q-18 0 -31.5 12t-13.5 31z" />
    <glyph glyph-name="divide" unicode="&#xf7;" 
d="M242 515q0 20 14.5 34.5t34.5 14.5t34.5 -14.5t14.5 -34.5t-14.5 -34.5t-34.5 -14.5t-34.5 14.5t-14.5 34.5zM242 151q0 20 14.5 34.5t34.5 14.5t34.5 -14.5t14.5 -34.5t-14.5 -34.5t-34.5 -14.5t-34.5 14.5t-14.5 34.5zM74 300v66h434v-66h-434z" />
    <glyph glyph-name="oslash" unicode="&#xf8;" horiz-adv-x="524" 
d="M546 400l-68 -61q28 -49 28 -109q0 -110 -70 -178q-65 -64 -174 -64q-78 0 -131 42l-68 -60l-40 45l69 61q-30 51 -30 114q0 104 75 173q68 62 166 62q78 0 135 -42l70 62zM150 124l236 210q-37 27 -84 27q-69 0 -115 -46q-51 -51 -51 -131q0 -32 14 -60zM420 288
l-234 -209q35 -27 82 -27q68 0 113 48q50 53 50 136q0 29 -11 52z" />
    <glyph glyph-name="ugrave" unicode="&#xf9;" horiz-adv-x="465" 
d="M190 415l-27 -219q-4 -38 -4 -54q0 -47 25 -69q24 -21 62 -21q40 0 67 25q11 11 18.5 29.5t10 33.5t6.5 45l28 230h72l-29 -238q-5 -36 -8.5 -55.5t-14.5 -46t-28 -44.5q-43 -43 -120 -43q-78 0 -121 38q-41 36 -41 105q0 17 6 71l26 213h72zM300 497l-118 135l78 34
l87 -145z" />
    <glyph glyph-name="uacute" unicode="&#xfa;" horiz-adv-x="465" 
d="M190 415l-27 -219q-4 -38 -4 -54q0 -47 25 -69q24 -21 62 -21q40 0 67 25q11 11 18.5 29.5t10 33.5t6.5 45l28 230h72l-29 -238q-5 -36 -8.5 -55.5t-14.5 -46t-28 -44.5q-43 -43 -120 -43q-78 0 -121 38q-41 36 -41 105q0 17 6 71l26 213h72zM368 666l70 -34l-151 -135
l-42 24z" />
    <glyph glyph-name="ucircumflex" unicode="&#xfb;" horiz-adv-x="465" 
d="M190 415l-27 -219q-4 -38 -4 -54q0 -47 25 -69q24 -21 62 -21q40 0 67 25q11 11 18.5 29.5t10 33.5t6.5 45l28 230h72l-29 -238q-5 -36 -8.5 -55.5t-14.5 -46t-28 -44.5q-43 -43 -120 -43q-78 0 -121 38q-41 36 -41 105q0 17 6 71l26 213h72zM308 578l-102 -81l-46 36
l153 121l123 -121l-46 -36z" />
    <glyph glyph-name="udieresis" unicode="&#xfc;" horiz-adv-x="465" 
d="M190 415l-27 -219q-4 -38 -4 -54q0 -47 25 -69q24 -21 62 -21q40 0 67 25q11 11 18.5 29.5t10 33.5t6.5 45l28 230h72l-29 -238q-5 -36 -8.5 -55.5t-14.5 -46t-28 -44.5q-43 -43 -120 -43q-78 0 -121 38q-41 36 -41 105q0 17 6 71l26 213h72zM337 543q0 23 17 40t40 17
q18 0 31 -12.5t13 -31.5q0 -22 -18 -40q-16 -16 -38 -16q-18 0 -31.5 12t-13.5 31zM163 543q0 23 17 40t40 17q18 0 31 -12.5t13 -31.5q0 -22 -18 -40q-16 -16 -38 -16q-18 0 -31.5 12t-13.5 31z" />
    <glyph glyph-name="yacute" unicode="&#xfd;" horiz-adv-x="460" 
d="M39 -230l165 269l-145 376h80l110 -297l172 297h82l-384 -645h-80zM374 666l70 -34l-151 -135l-42 24z" />
    <glyph glyph-name="thorn" unicode="&#xfe;" horiz-adv-x="528" 
d="M147 58l-36 -288h-72l118 959h72l-45 -372q23 31 58 49q35 19 85 19q81 0 130 -48q54 -52 54 -143q0 -121 -73 -192q-55 -54 -149 -54q-58 0 -95 23q-28 18 -47 47zM287 52q56 0 94 35q56 52 56 142q0 61 -36 97q-33 35 -92 35q-62 0 -103 -44q-46 -49 -46 -126
q0 -60 34 -99q36 -40 93 -40z" />
    <glyph glyph-name="ydieresis" unicode="&#xff;" horiz-adv-x="460" 
d="M39 -230l165 269l-145 376h80l110 -297l172 297h82l-384 -645h-80zM334 543q0 23 17 40t40 17q18 0 31 -12.5t13 -31.5q0 -22 -18 -40q-16 -16 -38 -16q-18 0 -31.5 12t-13.5 31zM160 543q0 23 17 40t40 17q18 0 31 -12.5t13 -31.5q0 -22 -18 -40q-16 -16 -38 -16
q-18 0 -31.5 12t-13.5 31z" />
    <glyph glyph-name="Amacron" unicode="&#x100;" horiz-adv-x="622" 
d="M534 0l-55 188h-284l-103 -188h-84l393 699l213 -699h-80zM233 258h226l-80 267zM240 733l8 64h320l-8 -64h-320z" />
    <glyph glyph-name="amacron" unicode="&#x101;" horiz-adv-x="528" 
d="M432 356l7 59h72l-51 -415h-72l7 58q-24 -33 -52 -49q-37 -21 -86 -21q-86 0 -135 51q-54 57 -54 148q0 116 72 184q57 54 149 54q51 0 88 -20q35 -18 55 -49zM295 361q-59 0 -100 -39q-53 -50 -53 -130q0 -69 43 -109q32 -31 84 -31q65 0 103 41q47 49 47 135
q0 64 -39 100q-35 33 -85 33zM176 513l7 60h302l-7 -60h-302z" />
    <glyph glyph-name="Abreve" unicode="&#x102;" horiz-adv-x="622" 
d="M534 0l-55 188h-284l-103 -188h-84l393 699l213 -699h-80zM233 258h226l-80 267zM500 841h68q-13 -56 -56 -87q-43 -33 -109 -33q-68 0 -107 39q-33 33 -38 81h64q7 -26 27 -41t57 -15t59 14q23 13 35 42z" />
    <glyph glyph-name="abreve" unicode="&#x103;" horiz-adv-x="528" 
d="M432 356l7 59h72l-51 -415h-72l7 58q-24 -33 -52 -49q-37 -21 -86 -21q-86 0 -135 51q-54 57 -54 148q0 116 72 184q57 54 149 54q51 0 88 -20q35 -18 55 -49zM295 361q-59 0 -100 -39q-53 -50 -53 -130q0 -69 43 -109q32 -31 84 -31q65 0 103 41q47 49 47 135
q0 64 -39 100q-35 33 -85 33zM181 617h59q5 -28 22 -43q19 -17 54 -17q38 0 61 18q21 16 31 42h63q-14 -48 -45 -79q-41 -41 -108 -41q-64 0 -98 32q-36 34 -39 88z" />
    <glyph glyph-name="Aogonek" unicode="&#x104;" horiz-adv-x="622" 
d="M8 0l393 699l213 -699h-18q-28 -20 -47 -39q-29 -29 -29 -57q0 -18 14 -27q11 -7 27 -7q25 0 51 13l-16 -59q-28 -14 -57 -14q-39 0 -62 20q-24 22 -24 58q0 32 27 65q23 27 54 47l-55 188h-284l-103 -188h-84zM233 258h226l-80 267z" />
    <glyph glyph-name="aogonek" unicode="&#x105;" horiz-adv-x="528" 
d="M432 356l7 59h72l-51 -415h-14q-35 -22 -52 -39q-29 -29 -29 -57q0 -14 8 -22q12 -12 38 -12q24 0 51 13l-15 -55q-27 -14 -60 -14q-38 0 -63 23q-21 21 -21 50q0 40 32 74q22 23 53 39l7 58q-24 -33 -52 -49q-37 -21 -86 -21q-86 0 -135 51q-54 57 -54 148q0 116 72 184
q57 54 149 54q51 0 88 -20q35 -18 55 -49zM295 361q-59 0 -100 -39q-53 -50 -53 -130q0 -69 43 -109q32 -31 84 -31q65 0 103 41q47 49 47 135q0 64 -39 100q-35 33 -85 33z" />
    <glyph glyph-name="Cacute" unicode="&#x106;" horiz-adv-x="650" 
d="M675 612l-11 -92q-35 39 -78 61q-53 27 -113 27q-130 0 -217 -87q-87 -89 -87 -214q0 -106 70 -180q66 -69 168 -69q73 0 127 28q45 23 84 59l-11 -92q-48 -33 -85 -47q-49 -18 -120 -18q-141 0 -227 88q-84 85 -84 223q0 169 112 278q104 101 270 101q76 0 131 -23
q34 -15 71 -43zM560 882l65 -45l-168 -117l-39 32z" />
    <glyph glyph-name="cacute" unicode="&#x107;" horiz-adv-x="440" 
d="M442 385l-10 -86q-26 29 -52 44q-33 18 -75 18q-65 0 -111 -43q-53 -51 -53 -126q0 -64 40 -104q36 -36 96 -36q42 0 77 18q31 16 58 47l-10 -86q-31 -23 -60 -32q-33 -11 -74 -11q-92 0 -146 55q-55 57 -55 145q0 104 72 174q63 63 168 63q76 0 135 -40zM383 666l70 -34
l-151 -135l-42 24z" />
    <glyph glyph-name="Ccircumflex" unicode="&#x108;" horiz-adv-x="650" 
d="M675 612l-11 -92q-35 39 -78 61q-53 27 -113 27q-130 0 -217 -87q-87 -89 -87 -214q0 -106 70 -180q66 -69 168 -69q73 0 127 28q45 23 84 59l-11 -92q-48 -33 -85 -47q-49 -18 -120 -18q-141 0 -227 88q-84 85 -84 223q0 169 112 278q104 101 270 101q76 0 131 -23
q34 -15 71 -43zM492 797l-97 -76l-51 41l154 119l126 -119l-53 -41z" />
    <glyph glyph-name="ccircumflex" unicode="&#x109;" horiz-adv-x="440" 
d="M442 385l-10 -86q-26 29 -52 44q-33 18 -75 18q-65 0 -111 -43q-53 -51 -53 -126q0 -64 40 -104q36 -36 96 -36q42 0 77 18q31 16 58 47l-10 -86q-31 -23 -60 -32q-33 -11 -74 -11q-92 0 -146 55q-55 57 -55 145q0 104 72 174q63 63 168 63q76 0 135 -40zM325 578
l-102 -81l-46 36l153 121l123 -121l-46 -36z" />
    <glyph glyph-name="Cdotaccent" unicode="&#x10a;" horiz-adv-x="650" 
d="M675 612l-11 -92q-35 39 -78 61q-53 27 -113 27q-130 0 -217 -87q-87 -89 -87 -214q0 -106 70 -180q66 -69 168 -69q73 0 127 28q45 23 84 59l-11 -92q-48 -33 -85 -47q-49 -18 -120 -18q-141 0 -227 88q-84 85 -84 223q0 169 112 278q104 101 270 101q76 0 131 -23
q34 -15 71 -43zM449 776q0 29 20 47q17 16 41 16q21 0 37 -14q13 -12 13 -35q0 -26 -16 -43q-17 -18 -43 -18t-39 13t-13 34z" />
    <glyph glyph-name="cdotaccent" unicode="&#x10b;" horiz-adv-x="440" 
d="M442 385l-10 -86q-26 29 -52 44q-33 18 -75 18q-65 0 -111 -43q-53 -51 -53 -126q0 -64 40 -104q36 -36 96 -36q42 0 77 18q31 16 58 47l-10 -86q-31 -23 -60 -32q-33 -11 -74 -11q-92 0 -146 55q-55 57 -55 145q0 104 72 174q63 63 168 63q76 0 135 -40zM279 546
q0 26 17 43t42 17q21 0 34 -13t13 -35q0 -25 -17 -42q-16 -16 -40 -16t-37 13q-12 16 -12 33z" />
    <glyph glyph-name="Ccaron" unicode="&#x10c;" horiz-adv-x="650" 
d="M675 612l-11 -92q-35 39 -78 61q-53 27 -113 27q-130 0 -217 -87q-87 -89 -87 -214q0 -106 70 -180q66 -69 168 -69q73 0 127 28q45 23 84 59l-11 -92q-48 -33 -85 -47q-49 -18 -120 -18q-141 0 -227 88q-84 85 -84 223q0 169 112 278q104 101 270 101q76 0 131 -23
q34 -15 71 -43zM485 805l97 76l51 -41l-154 -119l-126 119l53 41z" />
    <glyph glyph-name="ccaron" unicode="&#x10d;" horiz-adv-x="440" 
d="M442 385l-10 -86q-26 29 -52 44q-33 18 -75 18q-65 0 -111 -43q-53 -51 -53 -126q0 -64 40 -104q36 -36 96 -36q42 0 77 18q31 16 58 47l-10 -86q-31 -23 -60 -32q-33 -11 -74 -11q-92 0 -146 55q-55 57 -55 145q0 104 72 174q63 63 168 63q76 0 135 -40zM316 573l102 81
l46 -36l-153 -121l-123 121l46 36z" />
    <glyph glyph-name="Dcaron" unicode="&#x10e;" horiz-adv-x="636" 
d="M86 0l82 667h121q169 0 257 -83q81 -79 81 -216q0 -167 -97 -266q-57 -59 -133 -80.5t-182 -21.5h-129zM233 597l-64 -527h49q175 0 254 79q77 77 77 213q0 105 -60 166q-67 69 -191 69h-65zM365 805l97 76l51 -41l-154 -119l-126 119l53 41z" />
    <glyph glyph-name="dcaron" unicode="&#x10f;" horiz-adv-x="600" 
d="M432 356l46 373h72l-90 -729h-72l7 58q-22 -33 -58 -52q-35 -18 -81 -18q-77 0 -127 47q-61 59 -61 153q0 51 19.5 99.5t52.5 80.5q59 57 148 57q50 0 90 -20q32 -17 54 -49zM291 361q-57 0 -97 -37q-52 -48 -52 -129q0 -65 39 -106q35 -37 92 -37q61 0 98 36
q48 48 48 131q0 65 -38 106q-33 36 -90 36zM560 532l76 158l64 -30l-94 -150z" />
    <glyph glyph-name="Dcroat" unicode="&#x110;" horiz-adv-x="634" 
d="M84 0l42 336h-86l8 64h86l32 267h121q169 0 257 -83q81 -79 81 -216q0 -167 -97 -266q-57 -59 -133 -80.5t-182 -21.5h-129zM231 597l-24 -197h136l-8 -64h-136l-32 -266h49q175 0 254 79q77 77 77 213q0 105 -60 166q-67 69 -191 69h-65z" />
    <glyph glyph-name="dcroat" unicode="&#x111;" horiz-adv-x="528" 
d="M388 0l7 58q-22 -33 -58 -52q-35 -18 -81 -18q-77 0 -127 47q-61 59 -61 153q0 51 19.5 99.5t52.5 80.5q59 57 148 57q50 0 90 -20q32 -17 54 -49l24 198h-200l7 60h200l15 115h72l-15 -115h98l-7 -60h-98l-68 -554h-72zM291 361q-57 0 -97 -37q-52 -48 -52 -129
q0 -65 39 -106q35 -37 92 -37q61 0 98 36q48 48 48 131q0 65 -38 106q-33 36 -90 36z" />
    <glyph glyph-name="Emacron" unicode="&#x112;" horiz-adv-x="482" 
d="M514 667l-9 -70h-272l-24 -198h264l-9 -70h-264l-31 -259h272l-9 -70h-346l82 667h346zM190 733l8 64h320l-8 -64h-320z" />
    <glyph glyph-name="emacron" unicode="&#x113;" horiz-adv-x="483" 
d="M395 139l61 -33q-34 -57 -77 -86q-49 -32 -120 -32q-87 0 -137 52q-55 57 -55 149q0 107 71 178q58 58 145 58q86 0 135 -49q61 -63 47 -183h-323q-1 -72 37 -110q31 -31 82 -31q47 0 80 23q31 22 54 64zM154 253h242q-2 50 -35 82q-27 26 -76 26q-56 0 -91 -35
q-29 -30 -40 -73zM141 513l7 60h302l-7 -60h-302z" />
    <glyph glyph-name="Edotaccent" unicode="&#x116;" horiz-adv-x="482" 
d="M514 667l-9 -70h-272l-24 -198h264l-9 -70h-264l-31 -259h272l-9 -70h-346l82 667h346zM300 776q0 29 20 47q17 16 41 16q21 0 37 -14q13 -12 13 -35q0 -26 -16 -43q-17 -18 -43 -18t-39 13t-13 34z" />
    <glyph glyph-name="edotaccent" unicode="&#x117;" horiz-adv-x="483" 
d="M395 139l61 -33q-34 -57 -77 -86q-49 -32 -120 -32q-87 0 -137 52q-55 57 -55 149q0 107 71 178q58 58 145 58q86 0 135 -49q61 -63 47 -183h-323q-1 -72 37 -110q31 -31 82 -31q47 0 80 23q31 22 54 64zM154 253h242q-2 50 -35 82q-27 26 -76 26q-56 0 -91 -35
q-29 -30 -40 -73zM244 546q0 26 17 43t42 17q21 0 34 -13t13 -35q0 -25 -17 -42q-16 -16 -40 -16t-37 13q-12 16 -12 33z" />
    <glyph glyph-name="Eogonek" unicode="&#x118;" horiz-adv-x="482" 
d="M514 667l-9 -70h-272l-24 -198h264l-9 -70h-264l-31 -259h272l-9 -70h-40q-28 -20 -47 -39q-29 -29 -29 -57q0 -18 14 -27q11 -7 27 -7q25 0 51 13l-16 -59q-28 -14 -57 -14q-39 0 -62 20q-24 22 -24 58q0 32 27 65q23 27 54 47h-244l82 667h346z" />
    <glyph glyph-name="eogonek" unicode="&#x119;" horiz-adv-x="483" 
d="M395 139l61 -33q-16 -32 -43 -58q-25 -24 -57 -44q-44 -30 -56 -43q-29 -30 -29 -57q0 -14 8 -22q12 -12 38 -12q24 0 51 13l-15 -55q-27 -14 -60 -14q-38 0 -63 23q-21 19 -21 51t21 59q18 23 39 41q-97 0 -147 52q-55 57 -55 149q0 107 71 178q58 58 145 58
q86 0 135 -49q49 -51 49 -142q0 -27 -2 -41h-323q0 -73 37 -110q31 -31 82 -31q47 0 80 23q31 22 54 64zM154 253h242q-2 50 -35 82q-27 26 -76 26q-56 0 -91 -35q-29 -30 -40 -73z" />
    <glyph glyph-name="Ecaron" unicode="&#x11a;" horiz-adv-x="482" 
d="M514 667l-9 -70h-272l-24 -198h264l-9 -70h-264l-31 -259h272l-9 -70h-346l82 667h346zM355 805l97 76l51 -41l-154 -119l-126 119l53 41z" />
    <glyph glyph-name="ecaron" unicode="&#x11b;" horiz-adv-x="483" 
d="M395 139l61 -33q-34 -57 -77 -86q-49 -32 -120 -32q-87 0 -137 52q-55 57 -55 149q0 107 71 178q58 58 145 58q86 0 135 -49q61 -63 47 -183h-323q-1 -72 37 -110q31 -31 82 -31q47 0 80 23q31 22 54 64zM154 253h242q-2 50 -35 82q-27 26 -76 26q-56 0 -91 -35
q-29 -30 -40 -73zM295 573l102 81l46 -36l-153 -121l-123 121l46 36z" />
    <glyph glyph-name="Gcircumflex" unicode="&#x11c;" horiz-adv-x="760" 
d="M465 265l8 70h278l-2 -16q-19 -148 -98 -232q-92 -99 -244 -99q-140 0 -228 88t-88 223q0 162 110 272q106 107 275 107q103 0 175 -46q59 -36 95 -99l-61 -50q-28 55 -81 89q-56 36 -129 36q-134 0 -219 -83q-44 -44 -66.5 -104t-22.5 -120q0 -104 69 -175
q66 -68 178 -68t178 68q53 53 71 139h-198zM492 797l-97 -76l-51 41l154 119l126 -119l-53 -41z" />
    <glyph glyph-name="gcircumflex" unicode="&#x11d;" horiz-adv-x="526" 
d="M430 356l7 59h72l-49 -405q-5 -43 -9.5 -66.5t-18.5 -57t-37 -56.5q-58 -60 -162 -60q-91 0 -140 49q-47 48 -47 135v6h71v-4q0 -62 33 -93q31 -29 86 -29q68 0 105 37q17 17 27.5 42.5t13 41t5.5 43.5l6 60q-21 -33 -59 -52q-38 -18 -80 -18q-87 0 -137 53
q-52 53 -52 141q0 113 67 182q59 61 154 61q56 0 92 -20q32 -17 52 -49zM294 361q-59 0 -100 -38q-54 -51 -54 -136q0 -65 37 -102q33 -33 85 -33q62 0 102 36q26 23 39.5 62t13.5 76q0 61 -36 100q-33 35 -87 35zM325 578l-102 -81l-46 36l153 121l123 -121l-46 -36z" />
    <glyph glyph-name="Gbreve" unicode="&#x11e;" horiz-adv-x="760" 
d="M465 265l8 70h278l-2 -16q-19 -148 -98 -232q-92 -99 -244 -99q-140 0 -228 88t-88 223q0 162 110 272q106 107 275 107q103 0 175 -46q59 -36 95 -99l-61 -50q-28 55 -81 89q-56 36 -129 36q-134 0 -219 -83q-44 -44 -66.5 -104t-22.5 -120q0 -104 69 -175
q66 -68 178 -68t178 68q53 53 71 139h-198zM586 841h68q-13 -56 -56 -87q-43 -33 -109 -33q-68 0 -107 39q-33 33 -38 81h64q7 -26 27 -41t57 -15t59 14q23 13 35 42z" />
    <glyph glyph-name="gbreve" unicode="&#x11f;" horiz-adv-x="526" 
d="M430 356l7 59h72l-49 -405q-5 -43 -9.5 -66.5t-18.5 -57t-37 -56.5q-58 -60 -162 -60q-91 0 -140 49q-47 48 -47 135v6h71v-4q0 -62 33 -93q31 -29 86 -29q68 0 105 37q17 17 27.5 42.5t13 41t5.5 43.5l6 60q-21 -33 -59 -52q-38 -18 -80 -18q-87 0 -137 53
q-52 53 -52 141q0 113 67 182q59 61 154 61q56 0 92 -20q32 -17 52 -49zM294 361q-59 0 -100 -38q-54 -51 -54 -136q0 -65 37 -102q33 -33 85 -33q62 0 102 36q26 23 39.5 62t13.5 76q0 61 -36 100q-33 35 -87 35zM181 617h59q5 -28 22 -43q19 -17 54 -17q38 0 61 18
q21 16 31 42h63q-14 -48 -45 -79q-41 -41 -108 -41q-64 0 -98 32q-36 34 -39 88z" />
    <glyph glyph-name="Gdotaccent" unicode="&#x120;" horiz-adv-x="760" 
d="M465 265l8 70h278l-2 -16q-19 -148 -98 -232q-92 -99 -244 -99q-140 0 -228 88t-88 223q0 162 110 272q106 107 275 107q103 0 175 -46q59 -36 95 -99l-61 -50q-28 55 -81 89q-56 36 -129 36q-134 0 -219 -83q-44 -44 -66.5 -104t-22.5 -120q0 -104 69 -175
q66 -68 178 -68t178 68q53 53 71 139h-198zM432 776q0 29 20 47q17 16 41 16q21 0 37 -14q13 -12 13 -35q0 -26 -16 -43q-17 -18 -43 -18t-39 13t-13 34z" />
    <glyph glyph-name="gdotaccent" unicode="&#x121;" horiz-adv-x="526" 
d="M430 356l7 59h72l-49 -405q-5 -43 -9.5 -66.5t-18.5 -57t-37 -56.5q-58 -60 -162 -60q-91 0 -140 49q-47 48 -47 135v6h71v-4q0 -62 33 -93q31 -29 86 -29q68 0 105 37q17 17 27.5 42.5t13 41t5.5 43.5l6 60q-21 -33 -59 -52q-38 -18 -80 -18q-87 0 -137 53
q-52 53 -52 141q0 113 67 182q59 61 154 61q56 0 92 -20q32 -17 52 -49zM294 361q-59 0 -100 -38q-54 -51 -54 -136q0 -65 37 -102q33 -33 85 -33q62 0 102 36q26 23 39.5 62t13.5 76q0 61 -36 100q-33 35 -87 35zM263 546q0 26 17 43t42 17q21 0 34 -13t13 -35
q0 -25 -17 -42q-16 -16 -40 -16t-37 13q-12 16 -12 33z" />
    <glyph glyph-name="Gcommaaccent" unicode="&#x122;" horiz-adv-x="760" 
d="M465 265l8 70h278l-2 -16q-19 -148 -98 -232q-92 -99 -244 -99q-140 0 -228 88t-88 223q0 162 110 272q106 107 275 107q103 0 175 -46q59 -36 95 -99l-61 -50q-28 55 -81 89q-56 36 -129 36q-134 0 -219 -83q-44 -44 -66.5 -104t-22.5 -120q0 -104 69 -175
q66 -68 178 -68t178 68q53 53 71 139h-198zM301 -206l76 156l64 -30l-92 -150z" />
    <glyph glyph-name="gcommaaccent" unicode="&#x123;" horiz-adv-x="526" 
d="M430 356l7 59h72l-49 -405q-5 -43 -9.5 -66.5t-18.5 -57t-37 -56.5q-58 -60 -162 -60q-91 0 -140 49q-47 48 -47 135v6h71v-4q0 -62 33 -93q31 -29 86 -29q68 0 105 37q17 17 27.5 42.5t13 41t5.5 43.5l6 60q-21 -33 -59 -52q-38 -18 -80 -18q-87 0 -137 53
q-52 53 -52 141q0 113 67 182q59 61 154 61q56 0 92 -20q32 -17 52 -49zM294 361q-59 0 -100 -38q-54 -51 -54 -136q0 -65 37 -102q33 -33 85 -33q62 0 102 36q26 23 39.5 62t13.5 76q0 61 -36 100q-33 35 -87 35zM394 646l-76 -156l-64 30l92 150z" />
    <glyph glyph-name="Hcircumflex" unicode="&#x124;" horiz-adv-x="662" 
d="M242 667l-33 -271h342l33 271h74l-82 -667h-74l40 326h-342l-40 -326h-74l82 667h74zM433 797l-97 -76l-51 41l154 119l126 -119l-53 -41z" />
    <glyph glyph-name="hcircumflex" unicode="&#x125;" horiz-adv-x="469" 
d="M68 0l90 729h72l-45 -362q14 21 42 39q31 19 76 19q63 0 100 -36q33 -33 33 -93q0 -19 -6 -69l-28 -227h-72l25 207q6 51 6 71q0 41 -21 62t-58 21q-47 0 -74 -29q-30 -31 -41 -115l-27 -217h-72zM200 818l-102 -81l-46 36l153 121l123 -121l-46 -36z" />
    <glyph glyph-name="Hbar" unicode="&#x126;" horiz-adv-x="663" 
d="M242 667l-7 -53h342l7 53h74l-7 -53h60l-7 -62h-60l-68 -552h-74l40 326h-342l-40 -326h-74l68 552h-60l7 62h60l7 53h74zM570 552h-342l-19 -156h342z" />
    <glyph glyph-name="hbar" unicode="&#x127;" horiz-adv-x="469" 
d="M68 0l68 554h-98l7 60h99l14 115h72l-14 -115h199l-7 -60h-200l-23 -187q14 21 42 39q31 19 76 19q63 0 100 -36q33 -33 33 -93q0 -19 -6 -69l-28 -227h-72l25 207q6 51 6 71q0 41 -21 62t-58 21q-47 0 -74 -29q-30 -31 -41 -115l-27 -217h-72z" />
    <glyph glyph-name="Imacron" unicode="&#x12a;" horiz-adv-x="246" 
d="M168 667h74l-82 -667h-74zM90 733l8 64h246l-8 -64h-246z" />
    <glyph glyph-name="imacron" unicode="&#x12b;" horiz-adv-x="208" 
d="M119 415h72l-51 -415h-72zM63 513l7 60h208l-7 -60h-208z" />
    <glyph glyph-name="Iogonek" unicode="&#x12e;" horiz-adv-x="246" 
d="M168 667h74l-82 -667q-28 -20 -47 -39q-29 -29 -29 -57q0 -18 14 -27q11 -7 27 -7q25 0 51 13l-16 -59q-28 -14 -57 -14q-39 0 -62 20q-24 22 -24 58q0 32 27 65q23 27 54 47h-12z" />
    <glyph glyph-name="iogonek" unicode="&#x12f;" horiz-adv-x="208" 
d="M119 415h72l-51 -415q-35 -22 -52 -39q-29 -29 -29 -57q0 -14 8 -22q12 -12 38 -12q24 0 51 13l-15 -55q-27 -14 -60 -14q-38 0 -63 23q-21 21 -21 50q0 40 32 74q22 23 53 39h-14zM123 566q0 22 14 38q15 19 43 19q20 0 32 -12q13 -13 13 -33q0 -24 -16 -40
q-16 -17 -40 -17q-20 0 -34 14q-12 12 -12 31z" />
    <glyph glyph-name="Idotaccent" unicode="&#x130;" horiz-adv-x="246" 
d="M168 667h74l-82 -667h-74zM164 776q0 29 20 47q17 16 41 16q21 0 37 -14q13 -12 13 -35q0 -26 -16 -43q-17 -18 -43 -18t-39 13t-13 34z" />
    <glyph glyph-name="dotlessi" unicode="&#x131;" horiz-adv-x="208" 
d="M119 415h72l-51 -415h-72z" />
    <glyph glyph-name="Jcircumflex" unicode="&#x134;" horiz-adv-x="299" 
d="M221 667h74l-59 -482q-14 -115 -55 -156t-116 -41q-37 0 -67 15q-27 13 -46 34l48 58q10 -12 30 -25q21 -12 43 -12q32 0 52 20q27 27 37 107zM277 797l-97 -76l-51 41l154 119l126 -119l-53 -41z" />
    <glyph glyph-name="jcircumflex" unicode="&#x135;" horiz-adv-x="208" 
d="M119 415h72l-80 -645h-72zM174 572l-83 -67l-39 35l131 106l105 -106l-47 -35z" />
    <glyph glyph-name="Kcommaaccent" unicode="&#x136;" horiz-adv-x="568" 
d="M242 667l-35 -286l319 286h100l-354 -312l278 -355h-98l-235 306l-22 -19l-35 -287h-74l82 667h74zM192 -206l76 156l64 -30l-92 -150z" />
    <glyph glyph-name="kcommaaccent" unicode="&#x137;" horiz-adv-x="422" 
d="M158 729h72l-58 -468l171 154h94l-202 -178l181 -237h-92l-143 189l-20 -18l-21 -171h-72zM120 -206l76 156l64 -30l-92 -150z" />
    <glyph glyph-name="Lacute" unicode="&#x139;" horiz-adv-x="358" 
d="M168 667h74l-73 -597h184l-9 -70h-258zM350 882l65 -45l-168 -117l-39 32z" />
    <glyph glyph-name="lacute" unicode="&#x13a;" horiz-adv-x="208" 
d="M158 729h72l-90 -729h-72zM253 926l70 -34l-151 -135l-42 24z" />
    <glyph glyph-name="Lcommaaccent" unicode="&#x13b;" horiz-adv-x="358" 
d="M168 667h74l-73 -597h184l-9 -70h-258zM121 -206l76 156l64 -30l-92 -150z" />
    <glyph glyph-name="lcommaaccent" unicode="&#x13c;" horiz-adv-x="208" 
d="M158 729h72l-90 -729h-72zM1 -206l76 156l64 -30l-92 -150z" />
    <glyph glyph-name="Lcaron" unicode="&#x13d;" horiz-adv-x="358" 
d="M168 667h74l-73 -597h184l-9 -70h-258zM280 522l76 158l64 -30l-94 -150z" />
    <glyph glyph-name="lcaron" unicode="&#x13e;" horiz-adv-x="280" 
d="M158 729h72l-90 -729h-72zM240 532l76 158l64 -30l-94 -150z" />
    <glyph glyph-name="Ldot" unicode="&#x13f;" horiz-adv-x="358" 
d="M168 667h74l-73 -597h184l-9 -70h-258zM286 326q0 29 20 47q17 16 41 16q21 0 37 -14q13 -12 13 -35q0 -26 -16 -43q-17 -18 -43 -18t-39 13t-13 34z" />
    <glyph glyph-name="ldot" unicode="&#x140;" horiz-adv-x="334" 
d="M158 729h72l-90 -729h-72zM258 357q0 26 17 43t42 17q21 0 34 -13t13 -35q0 -25 -17 -42q-16 -16 -40 -16t-37 13q-12 16 -12 33z" />
    <glyph glyph-name="Lslash" unicode="&#x141;" horiz-adv-x="358" 
d="M168 667h74l-32 -261l108 64l-8 -64l-108 -64l-33 -272h184l-9 -70h-258l37 305l-92 -55l8 64l92 55z" />
    <glyph glyph-name="lslash" unicode="&#x142;" horiz-adv-x="208" 
d="M158 729h72l-29 -230l75 53l-8 -60l-74 -53l-54 -439h-72l48 393l-74 -53l7 60l75 53z" />
    <glyph glyph-name="Nacute" unicode="&#x143;" horiz-adv-x="766" 
d="M160 0h-74l85 695l453 -547l64 519h74l-86 -697l-453 547zM573 882l65 -45l-168 -117l-39 32z" />
    <glyph glyph-name="nacute" unicode="&#x144;" horiz-adv-x="469" 
d="M68 0l51 415h72l-6 -48q14 21 42 39q31 19 77 19q63 0 99 -36q33 -33 33 -93q0 -19 -6 -69l-28 -227h-72l25 207q6 51 6 71q0 41 -21 62t-58 21q-47 0 -74 -29q-30 -31 -41 -115l-27 -217h-72zM394 666l70 -34l-151 -135l-42 24z" />
    <glyph glyph-name="Ncommaaccent" unicode="&#x145;" horiz-adv-x="766" 
d="M160 0h-74l85 695l453 -547l64 519h74l-86 -697l-453 547zM281 -206l76 156l64 -30l-92 -150z" />
    <glyph glyph-name="ncommaaccent" unicode="&#x146;" horiz-adv-x="469" 
d="M68 0l51 415h72l-6 -48q14 21 42 39q31 19 77 19q63 0 99 -36q33 -33 33 -93q0 -19 -6 -69l-28 -227h-72l25 207q6 51 6 71q0 41 -21 62t-58 21q-47 0 -74 -29q-30 -31 -41 -115l-27 -217h-72zM121 -206l76 156l64 -30l-92 -150z" />
    <glyph glyph-name="Ncaron" unicode="&#x147;" horiz-adv-x="766" 
d="M160 0h-74l85 695l453 -547l64 519h74l-86 -697l-453 547zM478 805l97 76l51 -41l-154 -119l-126 119l53 41z" />
    <glyph glyph-name="ncaron" unicode="&#x148;" horiz-adv-x="469" 
d="M68 0l51 415h72l-6 -48q14 21 42 39q31 19 77 19q63 0 99 -36q33 -33 33 -93q0 -19 -6 -69l-28 -227h-72l25 207q6 51 6 71q0 41 -21 62t-58 21q-47 0 -74 -29q-30 -31 -41 -115l-27 -217h-72zM306 573l102 81l46 -36l-153 -121l-123 121l46 36z" />
    <glyph glyph-name="Omacron" unicode="&#x14c;" horiz-adv-x="800" 
d="M399 -12q-138 0 -222 87q-86 88 -86 221q0 169 114 277q109 105 274 105q139 0 224 -84q88 -86 88 -218q0 -80 -28.5 -155t-83.5 -128q-109 -105 -280 -105zM471 608q-125 0 -211 -79q-92 -86 -92 -219q0 -113 69 -184q66 -68 170 -68q134 0 216 80q43 42 67 102.5
t24 121.5q0 108 -70 178q-68 68 -173 68zM320 733l8 64h320l-8 -64h-320z" />
    <glyph glyph-name="omacron" unicode="&#x14d;" horiz-adv-x="528" 
d="M268 -12q-94 0 -148 57q-53 57 -53 145q0 103 75 173q68 62 166 62q95 0 152 -57q51 -51 51 -136q0 -112 -70 -180q-65 -64 -173 -64zM307 361q-66 0 -113 -46q-53 -51 -53 -130q0 -56 36 -94q37 -39 96 -39q69 0 113 48q50 53 50 131q0 56 -34 92q-36 38 -95 38z
M168 513l7 60h302l-7 -60h-302z" />
    <glyph glyph-name="Obreve" unicode="&#x14e;" horiz-adv-x="800" 
d="M399 -12q-138 0 -222 87q-86 88 -86 221q0 169 114 277q109 105 274 105q139 0 224 -84q88 -86 88 -218q0 -80 -28.5 -155t-83.5 -128q-109 -105 -280 -105zM471 608q-125 0 -211 -79q-92 -86 -92 -219q0 -113 69 -184q66 -68 170 -68q134 0 216 80q43 42 67 102.5
t24 121.5q0 108 -70 178q-68 68 -173 68zM580 841h68q-13 -56 -56 -87q-43 -33 -109 -33q-68 0 -107 39q-33 33 -38 81h64q7 -26 27 -41t57 -15t59 14q23 13 35 42z" />
    <glyph glyph-name="obreve" unicode="&#x14f;" horiz-adv-x="528" 
d="M268 -12q-94 0 -148 57q-53 57 -53 145q0 103 75 173q68 62 166 62q95 0 152 -57q51 -51 51 -136q0 -112 -70 -180q-65 -64 -173 -64zM307 361q-66 0 -113 -46q-53 -51 -53 -130q0 -56 36 -94q37 -39 96 -39q69 0 113 48q50 53 50 131q0 56 -34 92q-36 38 -95 38z
M181 617h59q5 -28 22 -43q19 -17 54 -17q38 0 61 18q21 16 31 42h63q-14 -48 -45 -79q-41 -41 -108 -41q-64 0 -98 32q-36 34 -39 88z" />
    <glyph glyph-name="Ohungarumlaut" unicode="&#x150;" horiz-adv-x="800" 
d="M399 -12q-138 0 -222 87q-86 88 -86 221q0 169 114 277q109 105 274 105q139 0 224 -84q88 -86 88 -218q0 -80 -28.5 -155t-83.5 -128q-109 -105 -280 -105zM471 608q-125 0 -211 -79q-92 -86 -92 -219q0 -113 69 -184q66 -68 170 -68q134 0 216 80q43 42 67 102.5
t24 121.5q0 108 -70 178q-68 68 -173 68zM502 882l65 -40l-162 -122l-39 26zM652 882l65 -40l-162 -122l-39 26z" />
    <glyph glyph-name="ohungarumlaut" unicode="&#x151;" horiz-adv-x="528" 
d="M268 -12q-94 0 -148 57q-53 57 -53 145q0 103 75 173q68 62 166 62q95 0 152 -57q51 -51 51 -136q0 -112 -70 -180q-65 -64 -173 -64zM307 361q-66 0 -113 -46q-53 -51 -53 -130q0 -56 36 -94q37 -39 96 -39q69 0 113 48q50 53 50 131q0 56 -34 92q-36 38 -95 38z
M332 666l68 -32l-154 -136l-38 23zM466 666l66 -32l-152 -136l-38 23z" />
    <glyph glyph-name="OE" unicode="&#x152;" horiz-adv-x="1059" 
d="M1091 667l-9 -70h-267l-24 -198h260l-9 -70h-260l-31 -259h267l-9 -70h-341l15 113q-56 -65 -114 -93q-64 -32 -161 -32q-146 0 -231 87q-86 88 -86 225q0 166 113 273q111 105 272 105q99 0 173 -51q48 -31 85 -93l16 133h341zM467 608q-122 0 -207 -79
q-92 -86 -92 -219q0 -113 69 -184q66 -68 173 -68q128 0 210 80q43 42 67 102.5t24 121.5q0 108 -70 178q-68 68 -174 68z" />
    <glyph glyph-name="oe" unicode="&#x153;" horiz-adv-x="854" 
d="M766 139l61 -33q-34 -57 -77 -86q-47 -32 -120 -32q-64 0 -108 28q-40 26 -63 73q-35 -47 -73 -71q-49 -30 -118 -30q-94 0 -148 57q-53 57 -53 145q0 105 73 173q65 62 169 62q59 0 106 -26q44 -25 66 -67q25 43 69 67q47 26 108 26q84 0 131 -49q61 -63 47 -182h-327
q-1 -73 37 -111q31 -31 82 -31t84 23q31 22 54 64zM522 254h247q-1 49 -35 81q-28 26 -78 26q-59 0 -94 -35q-29 -29 -40 -72zM305 361q-67 0 -112 -45q-51 -51 -51 -129q0 -58 36 -96q37 -39 97 -39q65 0 110 47q49 50 49 130q0 58 -34 94q-36 38 -95 38z" />
    <glyph glyph-name="Racute" unicode="&#x154;" horiz-adv-x="505" 
d="M168 667h107q115 0 167 -49q48 -44 48 -119q0 -92 -53 -142q-53 -52 -140 -59l175 -298h-90l-167 292h-19l-36 -292h-74zM233 597l-29 -239h47q85 0 124 35t39 95q0 63 -45 90q-32 19 -94 19h-42zM420 882l65 -45l-168 -117l-39 32z" />
    <glyph glyph-name="racute" unicode="&#x155;" horiz-adv-x="296" 
d="M68 0l51 415h72l-6 -45q15 25 42 40t60 15q35 0 61 -17l-42 -65q-19 14 -43 14q-33 0 -55 -22q-30 -29 -41 -116l-27 -219h-72zM334 666l70 -34l-151 -135l-42 24z" />
    <glyph glyph-name="Rcommaaccent" unicode="&#x156;" horiz-adv-x="505" 
d="M168 667h107q115 0 167 -49q48 -44 48 -119q0 -92 -53 -142q-53 -52 -140 -59l175 -298h-90l-167 292h-19l-36 -292h-74zM233 597l-29 -239h47q85 0 124 35t39 95q0 63 -45 90q-32 19 -94 19h-42zM161 -206l76 156l64 -30l-92 -150z" />
    <glyph glyph-name="rcommaaccent" unicode="&#x157;" horiz-adv-x="296" 
d="M68 0l51 415h72l-6 -45q15 25 42 40t60 15q35 0 61 -17l-42 -65q-19 14 -43 14q-33 0 -55 -22q-30 -29 -41 -116l-27 -219h-72zM41 -206l76 156l64 -30l-92 -150z" />
    <glyph glyph-name="Rcaron" unicode="&#x158;" horiz-adv-x="505" 
d="M168 667h107q115 0 167 -49q48 -44 48 -119q0 -92 -53 -142q-53 -52 -140 -59l175 -298h-90l-167 292h-19l-36 -292h-74zM233 597l-29 -239h47q85 0 124 35t39 95q0 63 -45 90q-32 19 -94 19h-42zM325 805l97 76l51 -41l-154 -119l-126 119l53 41z" />
    <glyph glyph-name="rcaron" unicode="&#x159;" horiz-adv-x="296" 
d="M68 0l51 415h72l-6 -45q15 25 42 40t60 15q35 0 61 -17l-42 -65q-19 14 -43 14q-33 0 -55 -22q-30 -29 -41 -116l-27 -219h-72zM266 573l102 81l46 -36l-153 -121l-123 121l46 36z" />
    <glyph glyph-name="Sacute" unicode="&#x15a;" horiz-adv-x="518" 
d="M513 574l-63 -39q-11 31 -37 52q-28 21 -75 21q-52 0 -84 -28q-35 -32 -35 -79q0 -36 28 -61q17 -15 56 -35l60 -28q53 -24 85 -57q45 -46 45 -117q0 -93 -56 -151q-62 -64 -173 -64q-88 0 -138 50q-49 50 -56 122l74 20q3 -53 36 -87q34 -35 95 -35q68 0 104 37t36 97
q0 53 -36 85q-20 19 -65 40l-53 25q-53 23 -79 51q-38 40 -38 103q0 75 52 126q57 56 147 56q68 0 110 -28q41 -27 60 -76zM449 882l65 -45l-168 -117l-39 32z" />
    <glyph glyph-name="sacute" unicode="&#x15b;" horiz-adv-x="350" 
d="M339 350l-63 -31q-5 16 -17 28q-14 14 -36 14q-24 0 -40 -13q-16 -15 -16 -37q0 -17 12 -29q9 -9 41 -24l38 -19q32 -16 53 -37q27 -30 27 -74q0 -58 -35 -96q-41 -44 -119 -44q-54 0 -87 27q-36 30 -49 79l63 26q8 -31 25 -49q19 -19 50 -19q36 0 56 18q21 20 21 53
q0 26 -22 43q-10 8 -43 25l-23 11q-37 18 -55 38q-23 26 -23 65q0 50 35 85t94 35q44 0 75 -25q26 -21 38 -50zM320 666l70 -34l-151 -135l-42 24z" />
    <glyph glyph-name="Scircumflex" unicode="&#x15c;" horiz-adv-x="518" 
d="M513 574l-63 -39q-11 31 -37 52q-28 21 -75 21q-52 0 -84 -28q-35 -32 -35 -79q0 -36 28 -61q17 -15 56 -35l60 -28q53 -24 85 -57q45 -46 45 -117q0 -93 -56 -151q-62 -64 -173 -64q-88 0 -138 50q-49 50 -56 122l74 20q3 -53 36 -87q34 -35 95 -35q68 0 104 37t36 97
q0 53 -36 85q-20 19 -65 40l-53 25q-53 23 -79 51q-38 40 -38 103q0 75 52 126q57 56 147 56q68 0 110 -28q41 -27 60 -76zM362 797l-97 -76l-51 41l154 119l126 -119l-53 -41z" />
    <glyph glyph-name="scircumflex" unicode="&#x15d;" horiz-adv-x="350" 
d="M339 350l-63 -31q-5 16 -17 28q-14 14 -36 14q-24 0 -40 -13q-16 -15 -16 -37q0 -17 12 -29q9 -9 41 -24l38 -19q32 -16 53 -37q27 -30 27 -74q0 -58 -35 -96q-41 -44 -119 -44q-54 0 -87 27q-36 30 -49 79l63 26q8 -31 25 -49q19 -19 50 -19q36 0 56 18q21 20 21 53
q0 26 -22 43q-10 8 -43 25l-23 11q-37 18 -55 38q-23 26 -23 65q0 50 35 85t94 35q44 0 75 -25q26 -21 38 -50zM249 578l-102 -81l-46 36l153 121l123 -121l-46 -36z" />
    <glyph glyph-name="Scedilla" unicode="&#x15e;" horiz-adv-x="518" 
d="M513 574l-63 -39q-11 31 -37 52q-28 21 -75 21q-52 0 -84 -28q-35 -32 -35 -79q0 -36 28 -61q17 -15 56 -35l60 -28q53 -24 85 -57q45 -46 45 -117q0 -93 -56 -151q-62 -64 -173 -64q-88 0 -138 50q-49 50 -56 122l74 20q3 -53 36 -87q34 -35 95 -35q68 0 104 37t36 97
q0 53 -36 85q-20 19 -65 40l-53 25q-53 23 -79 51q-38 40 -38 103q0 75 52 126q57 56 147 56q68 0 110 -28q41 -27 60 -76zM248 -52l66 -30l-120 -128l-47 26z" />
    <glyph glyph-name="scedilla" unicode="&#x15f;" horiz-adv-x="350" 
d="M339 350l-63 -31q-5 16 -17 28q-14 14 -36 14q-24 0 -40 -13q-16 -15 -16 -37q0 -17 12 -29q9 -9 41 -24l38 -19q32 -16 53 -37q27 -30 27 -74q0 -58 -35 -96q-41 -44 -119 -44q-54 0 -87 27q-36 30 -49 79l63 26q8 -31 25 -49q19 -19 50 -19q36 0 56 18q21 20 21 53
q0 26 -22 43q-10 8 -43 25l-23 11q-37 18 -55 38q-23 26 -23 65q0 50 35 85t94 35q44 0 75 -25q26 -21 38 -50zM170 -52l62 -27l-116 -128l-46 24z" />
    <glyph glyph-name="Scaron" unicode="&#x160;" horiz-adv-x="518" 
d="M513 574l-63 -39q-11 31 -37 52q-28 21 -75 21q-52 0 -84 -28q-35 -32 -35 -79q0 -36 28 -61q17 -15 56 -35l60 -28q53 -24 85 -57q45 -46 45 -117q0 -93 -56 -151q-62 -64 -173 -64q-88 0 -138 50q-49 50 -56 122l74 20q3 -53 36 -87q34 -35 95 -35q68 0 104 37t36 97
q0 53 -36 85q-20 19 -65 40l-53 25q-53 23 -79 51q-38 40 -38 103q0 75 52 126q57 56 147 56q68 0 110 -28q41 -27 60 -76zM355 805l97 76l51 -41l-154 -119l-126 119l53 41z" />
    <glyph glyph-name="scaron" unicode="&#x161;" horiz-adv-x="350" 
d="M339 350l-63 -31q-5 16 -17 28q-14 14 -36 14q-24 0 -40 -13q-16 -15 -16 -37q0 -17 12 -29q9 -9 41 -24l38 -19q32 -16 53 -37q27 -30 27 -74q0 -58 -35 -96q-41 -44 -119 -44q-54 0 -87 27q-36 30 -49 79l63 26q8 -31 25 -49q19 -19 50 -19q36 0 56 18q21 20 21 53
q0 26 -22 43q-10 8 -43 25l-23 11q-37 18 -55 38q-23 26 -23 65q0 50 35 85t94 35q44 0 75 -25q26 -21 38 -50zM240 573l102 81l46 -36l-153 -121l-123 121l46 36z" />
    <glyph glyph-name="Tcedilla" unicode="&#x162;" horiz-adv-x="426" 
d="M485 597h-162l-73 -597h-74l73 597h-162l9 70h398zM198 -52l66 -30l-120 -128l-47 26z" />
    <glyph glyph-name="tcedilla" unicode="&#x163;" horiz-adv-x="214" 
d="M257 349h-72l-43 -349h-72l43 349h-44l8 66h44l18 150h72l-18 -150h72zM90 -52l62 -27l-116 -128l-46 24z" />
    <glyph glyph-name="Tcaron" unicode="&#x164;" horiz-adv-x="426" 
d="M485 597h-162l-73 -597h-74l73 597h-162l9 70h398zM308 805l97 76l51 -41l-154 -119l-126 119l53 41z" />
    <glyph glyph-name="tcaron" unicode="&#x165;" horiz-adv-x="280" 
d="M257 349h-72l-43 -349h-72l43 349h-44l8 66h44l18 150h72l-18 -150h72zM240 532l76 158l64 -30l-94 -150z" />
    <glyph glyph-name="Utilde" unicode="&#x168;" horiz-adv-x="646" 
d="M242 667l-48 -392q-7 -53 -7 -80q0 -62 43 -101q39 -36 112 -36q84 0 126 47q36 41 50 153l50 409h74l-53 -429q-8 -66 -23.5 -109.5t-54.5 -80.5q-63 -60 -177 -60q-104 0 -163 56q-58 56 -58 138q0 38 7 101l48 384h74zM538 842l39 -35q-11 -23 -35 -44
q-34 -28 -68 -28q-26 0 -54 15l-21 12q-26 15 -44 15q-19 0 -32 -14q-12 -12 -21 -30l-40 36q20 32 40 48q28 24 64 24q27 0 57 -17l25 -14q19 -11 35 -11q19 0 34 14q13 13 21 29z" />
    <glyph glyph-name="utilde" unicode="&#x169;" horiz-adv-x="465" 
d="M190 415l-27 -219q-4 -38 -4 -54q0 -47 25 -69q24 -21 62 -21q40 0 67 25q11 11 18.5 29.5t10 33.5t6.5 45l28 230h72l-29 -238q-5 -36 -8.5 -55.5t-14.5 -46t-28 -44.5q-43 -43 -120 -43q-78 0 -121 38q-41 36 -41 105q0 17 6 71l26 213h72zM181 497l-38 34q16 24 40 45
q29 24 62 24q27 0 65 -20l17 -9q22 -11 37 -11q20 0 35 15q9 11 20 28l37 -34q-18 -32 -36 -47q-25 -22 -61 -22q-25 0 -55 14l-22 11q-32 15 -44 15q-18 0 -34 -16q-18 -16 -23 -27z" />
    <glyph glyph-name="Umacron" unicode="&#x16a;" horiz-adv-x="646" 
d="M242 667l-48 -392q-7 -53 -7 -80q0 -62 43 -101q39 -36 112 -36q84 0 126 47q36 41 50 153l50 409h74l-53 -429q-8 -66 -23.5 -109.5t-54.5 -80.5q-63 -60 -177 -60q-104 0 -163 56q-58 56 -58 138q0 38 7 101l48 384h74zM253 733l8 64h320l-8 -64h-320z" />
    <glyph glyph-name="umacron" unicode="&#x16b;" horiz-adv-x="465" 
d="M190 415l-27 -219q-4 -38 -4 -54q0 -47 25 -69q24 -21 62 -21q40 0 67 25q11 11 18.5 29.5t10 33.5t6.5 45l28 230h72l-29 -238q-5 -36 -8.5 -55.5t-14.5 -46t-28 -44.5q-43 -43 -120 -43q-78 0 -121 38q-41 36 -41 105q0 17 6 71l26 213h72zM145 513l7 60h302l-7 -60
h-302z" />
    <glyph glyph-name="Ubreve" unicode="&#x16c;" horiz-adv-x="646" 
d="M242 667l-48 -392q-7 -53 -7 -80q0 -62 43 -101q39 -36 112 -36q84 0 126 47q36 41 50 153l50 409h74l-53 -429q-8 -66 -23.5 -109.5t-54.5 -80.5q-63 -60 -177 -60q-104 0 -163 56q-58 56 -58 138q0 38 7 101l48 384h74zM513 841h68q-13 -56 -56 -87q-43 -33 -109 -33
q-68 0 -107 39q-33 33 -38 81h64q7 -26 27 -41t57 -15t59 14q23 13 35 42z" />
    <glyph glyph-name="ubreve" unicode="&#x16d;" horiz-adv-x="465" 
d="M190 415l-27 -219q-4 -38 -4 -54q0 -47 25 -69q24 -21 62 -21q40 0 67 25q11 11 18.5 29.5t10 33.5t6.5 45l28 230h72l-29 -238q-5 -36 -8.5 -55.5t-14.5 -46t-28 -44.5q-43 -43 -120 -43q-78 0 -121 38q-41 36 -41 105q0 17 6 71l26 213h72zM156 617h59q5 -28 22 -43
q19 -17 54 -17q38 0 61 18q21 16 31 42h63q-14 -48 -45 -79q-41 -41 -108 -41q-64 0 -98 32q-36 34 -39 88z" />
    <glyph glyph-name="Uring" unicode="&#x16e;" horiz-adv-x="646" 
d="M242 667l-48 -392q-7 -53 -7 -80q0 -62 43 -101q39 -36 112 -36q84 0 126 47q36 41 50 153l50 409h74l-53 -429q-8 -66 -23.5 -109.5t-54.5 -80.5q-63 -60 -177 -60q-104 0 -163 56q-58 56 -58 138q0 38 7 101l48 384h74zM334 809q0 42 29 71q26 26 67 26q37 0 61 -24
q21 -24 21 -58q0 -41 -28 -69q-27 -25 -68 -25q-36 0 -58 21q-24 24 -24 58zM382 814q0 -16 10 -26q11 -11 28 -11q18 0 32 12t14 33q0 19 -12 29q-10 10 -28 10q-19 0 -31 -12q-13 -13 -13 -35z" />
    <glyph glyph-name="uring" unicode="&#x16f;" horiz-adv-x="465" 
d="M190 415l-27 -219q-4 -38 -4 -54q0 -47 25 -69q24 -21 62 -21q40 0 67 25q11 11 18.5 29.5t10 33.5t6.5 45l28 230h72l-29 -238q-5 -36 -8.5 -55.5t-14.5 -46t-28 -44.5q-43 -43 -120 -43q-78 0 -121 38q-41 36 -41 105q0 17 6 71l26 213h72zM210 575q0 45 27 70
q24 24 63 24t61 -22t22 -60q0 -40 -25 -65q-26 -25 -67 -25q-38 0 -59 21q-22 22 -22 57zM255 579q0 -16 10 -26q10 -12 30 -12q19 0 31 12q13 13 13 34q0 19 -11 28q-10 10 -29 10t-31 -12q-13 -13 -13 -34z" />
    <glyph glyph-name="Uhungarumlaut" unicode="&#x170;" horiz-adv-x="646" 
d="M242 667l-48 -392q-7 -53 -7 -80q0 -62 43 -101q39 -36 112 -36q84 0 126 47q36 41 50 153l50 409h74l-53 -429q-8 -66 -23.5 -109.5t-54.5 -80.5q-63 -60 -177 -60q-104 0 -163 56q-58 56 -58 138q0 38 7 101l48 384h74zM435 882l65 -40l-162 -122l-39 26zM585 882
l65 -40l-162 -122l-39 26z" />
    <glyph glyph-name="uhungarumlaut" unicode="&#x171;" horiz-adv-x="465" 
d="M190 415l-27 -219q-4 -38 -4 -54q0 -47 25 -69q24 -21 62 -21q40 0 67 25q11 11 18.5 29.5t10 33.5t6.5 45l28 230h72l-29 -238q-5 -36 -8.5 -55.5t-14.5 -46t-28 -44.5q-43 -43 -120 -43q-78 0 -121 38q-41 36 -41 105q0 17 6 71l26 213h72zM307 666l68 -32l-154 -136
l-38 23zM441 666l66 -32l-152 -136l-38 23z" />
    <glyph glyph-name="Uogonek" unicode="&#x172;" horiz-adv-x="646" 
d="M242 667l-48 -392q-7 -53 -7 -80q0 -62 43 -101q39 -36 112 -36q84 0 126 47q36 39 49 145l51 417h74l-53 -429q-4 -32 -6.5 -47t-9.5 -42.5t-21 -50t-35 -44.5q-25 -27 -81 -58q-48 -26 -65 -43q-23 -23 -23 -49q0 -18 14 -27q10 -7 28 -7q26 0 50 13l-16 -59
q-28 -14 -57 -14q-39 0 -62 20q-24 19 -24 58q0 31 21 58q19 26 48 43q-7 -1 -20 -1q-97 0 -159 56q-58 52 -58 140q0 36 7 99l48 384h74z" />
    <glyph glyph-name="uogonek" unicode="&#x173;" horiz-adv-x="465" 
d="M190 415l-27 -219q-4 -38 -4 -54q0 -47 25 -69q24 -21 62 -21q40 0 67 25q11 11 18.5 29.5t10 33.5t6.5 45l28 230h72l-29 -238q-7 -59 -17.5 -90.5t-39.5 -61.5q-7 -7 -39 -34q-24 -20 -34 -30q-29 -30 -29 -57q0 -14 8 -22q12 -12 38 -12q24 0 51 13l-15 -55
q-27 -14 -60 -14q-38 0 -63 23q-21 21 -21 50q0 30 20 59q16 21 42 42q-88 -2 -133 38q-41 36 -41 105q0 17 6 71l26 213h72z" />
    <glyph glyph-name="Ydieresis" unicode="&#x178;" horiz-adv-x="530" 
d="M227 0l35 287l-172 380h84l133 -298l209 298h88l-268 -380l-35 -287h-74zM405 778q0 22 15 38q18 19 42 19q18 0 32 -12q13 -13 13 -31q0 -24 -16 -42q-17 -17 -40 -17q-21 0 -34 13q-12 12 -12 32zM215 778q0 22 15 38q18 19 42 19q18 0 32 -12q13 -13 13 -31
q0 -24 -16 -42q-17 -17 -40 -17q-21 0 -34 13q-12 12 -12 32z" />
    <glyph glyph-name="Zacute" unicode="&#x179;" horiz-adv-x="536" 
d="M594 667l-437 -597h354l-9 -70h-478l437 597h-317l9 70h441zM458 882l65 -45l-168 -117l-39 32z" />
    <glyph glyph-name="zacute" unicode="&#x17a;" horiz-adv-x="460" 
d="M503 415l-343 -349h288l-8 -66h-432l343 349h-242l8 66h386zM384 666l70 -34l-151 -135l-42 24z" />
    <glyph glyph-name="Zdotaccent" unicode="&#x17b;" horiz-adv-x="536" 
d="M594 667l-437 -597h354l-9 -70h-478l437 597h-317l9 70h441zM320 776q0 29 20 47q17 16 41 16q21 0 37 -14q13 -12 13 -35q0 -26 -16 -43q-17 -18 -43 -18t-39 13t-13 34z" />
    <glyph glyph-name="zdotaccent" unicode="&#x17c;" horiz-adv-x="460" 
d="M503 415l-343 -349h288l-8 -66h-432l343 349h-242l8 66h386zM265 546q0 26 17 43t42 17q21 0 34 -13t13 -35q0 -25 -17 -42q-16 -16 -40 -16t-37 13q-12 16 -12 33z" />
    <glyph glyph-name="Zcaron" unicode="&#x17d;" horiz-adv-x="536" 
d="M594 667l-437 -597h354l-9 -70h-478l437 597h-317l9 70h441zM375 805l97 76l51 -41l-154 -119l-126 119l53 41z" />
    <glyph glyph-name="zcaron" unicode="&#x17e;" horiz-adv-x="460" 
d="M503 415l-343 -349h288l-8 -66h-432l343 349h-242l8 66h386zM322 573l102 81l46 -36l-153 -121l-123 121l46 36z" />
    <glyph glyph-name="uni018F" unicode="&#x18f;" horiz-adv-x="759" 
d="M192 483l-62 35q55 75 123 114q81 46 180 46q143 0 231 -85q86 -84 86 -224q0 -174 -105 -283q-95 -98 -259 -98q-134 0 -210 76q-87 87 -87 225q0 23 3 46h580q10 61 -8 115.5t-57 91.5q-70 66 -177 66q-83 0 -146 -39q-49 -31 -92 -86zM657 265h-497q2 -45 20.5 -86
t46.5 -67q59 -54 163 -54q119 0 191 69q58 56 76 138z" />
    <glyph glyph-name="florin" unicode="&#x192;" horiz-adv-x="568" 
d="M465 355h-108l-85 -329q-28 -108 -73 -149q-52 -47 -142 -47q-18 0 -42 4l19 64q14 -2 24 -2q61 0 92 29q32 31 57 128l77 302h-72l13 60h74l46 179q20 78 57 113q35 33 95 33q33 0 63 -10l-18 -67q-24 11 -45 11q-28 0 -45 -16q-22 -20 -38 -84l-42 -159h106z" />
    <glyph glyph-name="uni01CF" unicode="&#x1cf;" horiz-adv-x="246" 
d="M168 667h74l-82 -667h-74zM218 805l97 76l51 -41l-154 -119l-126 119l53 41z" />
    <glyph glyph-name="uni01D0" unicode="&#x1d0;" horiz-adv-x="208" 
d="M119 415h72l-51 -415h-72zM172 579l83 67l42 -35l-131 -106l-105 106l44 35z" />
    <glyph glyph-name="uni01DD" unicode="&#x1dd;" horiz-adv-x="483" 
d="M138 274l-56 33q30 53 73 83q51 35 123 35q83 0 133 -46q56 -52 56 -144q0 -66 -23 -122t-64 -87q-50 -38 -136 -38q-84 0 -130 48q-63 66 -46 184h324q4 33 -6.5 63t-29.5 48q-32 30 -84 30q-50 0 -87 -30q-24 -19 -47 -57zM379 160h-244q2 -50 32 -80q28 -28 82 -28
q49 0 83 26q38 29 47 82z" />
    <glyph glyph-name="Gcaron" unicode="&#x1e6;" horiz-adv-x="760" 
d="M465 265l8 70h278l-2 -16q-19 -148 -98 -232q-92 -99 -244 -99q-140 0 -228 88t-88 223q0 162 110 272q106 107 275 107q103 0 175 -46q59 -36 95 -99l-61 -50q-28 55 -81 89q-56 36 -129 36q-134 0 -219 -83q-44 -44 -66.5 -104t-22.5 -120q0 -104 69 -175
q66 -68 178 -68t178 68q53 53 71 139h-198zM485 805l97 76l51 -41l-154 -119l-126 119l53 41z" />
    <glyph glyph-name="gcaron" unicode="&#x1e7;" horiz-adv-x="526" 
d="M430 356l7 59h72l-49 -405q-5 -43 -9.5 -66.5t-18.5 -57t-37 -56.5q-58 -60 -162 -60q-91 0 -140 49q-47 48 -47 135v6h71v-4q0 -62 33 -93q31 -29 86 -29q68 0 105 37q17 17 27.5 42.5t13 41t5.5 43.5l6 60q-21 -33 -59 -52q-38 -18 -80 -18q-87 0 -137 53
q-52 53 -52 141q0 113 67 182q59 61 154 61q56 0 92 -20q32 -17 52 -49zM294 361q-59 0 -100 -38q-54 -51 -54 -136q0 -65 37 -102q33 -33 85 -33q62 0 102 36q26 23 39.5 62t13.5 76q0 61 -36 100q-33 35 -87 35zM316 573l102 81l46 -36l-153 -121l-123 121l46 36z" />
    <glyph glyph-name="AEacute" unicode="&#x1fc;" horiz-adv-x="900" 
d="M538 0l-56 187h-284l-102 -187h-82l379 667h293l20 -70h-269l59 -198h264l20 -70h-262l77 -259h271l20 -70h-348zM239 257h223l-78 261zM640 882l65 -45l-168 -117l-39 32z" />
    <glyph glyph-name="aeacute" unicode="&#x1fd;" horiz-adv-x="776" 
d="M415 348q26 34 66 55q44 22 97 22q85 0 132 -49q61 -63 47 -182h-327v-8q0 -64 37 -103q31 -31 82 -31t84 23q31 22 54 64l61 -33q-34 -57 -77 -86q-46 -32 -120 -32q-63 0 -103 24q-33 19 -58 59q-26 -42 -65 -62q-39 -21 -104 -21q-76 0 -116 29q-48 32 -48 95
q0 73 58 114q48 34 127 34q70 0 121 -35q8 82 -26 112q-26 24 -84 24q-57 0 -123 -26l8 68q63 22 128 22q60 0 99 -22q35 -20 50 -55zM240 196q-53 0 -83 -23q-27 -20 -27 -53q0 -32 27 -51q25 -17 75 -17q42 0 76 17q38 21 38 62q0 32 -30 49q-26 16 -76 16zM443 254h247
q-1 49 -35 81q-28 26 -78 26q-59 0 -94 -35q-29 -29 -40 -72zM532 666l70 -34l-151 -135l-42 24z" />
    <glyph glyph-name="Scommaaccent" unicode="&#x218;" horiz-adv-x="518" 
d="M513 574l-63 -39q-11 31 -37 52q-28 21 -75 21q-52 0 -84 -28q-35 -32 -35 -79q0 -36 28 -61q17 -15 56 -35l60 -28q53 -24 85 -57q45 -46 45 -117q0 -93 -56 -151q-62 -64 -173 -64q-88 0 -138 50q-49 50 -56 122l74 20q3 -53 36 -87q34 -35 95 -35q68 0 104 37t36 97
q0 53 -36 85q-20 19 -65 40l-53 25q-53 23 -79 51q-38 40 -38 103q0 75 52 126q57 56 147 56q68 0 110 -28q41 -27 60 -76zM161 -206l76 156l64 -30l-92 -150z" />
    <glyph glyph-name="scommaaccent" unicode="&#x219;" horiz-adv-x="350" 
d="M339 350l-63 -31q-5 16 -17 28q-14 14 -36 14q-24 0 -40 -13q-16 -15 -16 -37q0 -17 12 -29q9 -9 41 -24l38 -19q32 -16 53 -37q27 -30 27 -74q0 -58 -35 -96q-41 -44 -119 -44q-54 0 -87 27q-36 30 -49 79l63 26q8 -31 25 -49q19 -19 50 -19q36 0 56 18q21 20 21 53
q0 26 -22 43q-10 8 -43 25l-23 11q-37 18 -55 38q-23 26 -23 65q0 50 35 85t94 35q44 0 75 -25q26 -21 38 -50zM81 -206l76 156l64 -30l-92 -150z" />
    <glyph glyph-name="Tcommaaccent" unicode="&#x21a;" horiz-adv-x="426" 
d="M485 597h-162l-73 -597h-74l73 597h-162l9 70h398zM121 -206l76 156l64 -30l-92 -150z" />
    <glyph glyph-name="tcommaaccent" unicode="&#x21b;" horiz-adv-x="214" 
d="M257 349h-72l-43 -349h-72l43 349h-44l8 66h44l18 150h72l-18 -150h72zM21 -206l76 156l64 -30l-92 -150z" />
    <glyph glyph-name="uni0228" unicode="&#x228;" horiz-adv-x="482" 
d="M514 667l-9 -70h-272l-24 -198h264l-9 -70h-264l-31 -259h272l-9 -70h-346l82 667h346zM249 -52l66 -30l-120 -128l-47 26z" />
    <glyph glyph-name="uni0229" unicode="&#x229;" horiz-adv-x="483" 
d="M395 139l61 -33q-34 -57 -77 -86q-49 -32 -120 -32q-87 0 -137 52q-55 57 -55 149q0 107 71 178q58 58 145 58q86 0 135 -49q61 -63 47 -183h-323q-1 -72 37 -110q31 -31 82 -31q47 0 80 23q31 22 54 64zM154 253h242q-2 50 -35 82q-27 26 -76 26q-56 0 -91 -35
q-29 -30 -40 -73zM252 -52l62 -27l-116 -128l-46 24z" />
    <glyph glyph-name="uni0237" unicode="&#x237;" horiz-adv-x="207" 
d="M119 415h72l-80 -645h-72z" />
    <glyph glyph-name="uni0259" unicode="&#x259;" horiz-adv-x="483" 
d="M138 274l-56 33q30 53 73 83q51 35 123 35q83 0 133 -46q56 -52 56 -144q0 -66 -23 -122t-64 -87q-50 -38 -136 -38q-84 0 -130 48q-63 66 -46 184h324q4 33 -6.5 63t-29.5 48q-32 30 -84 30q-50 0 -87 -30q-24 -19 -47 -57zM379 160h-244q2 -50 32 -80q28 -28 82 -28
q49 0 83 26q38 29 47 82z" />
    <glyph glyph-name="afii57929" unicode="&#x2bc;" 
d="M220 532l76 158l64 -30l-94 -150z" />
    <glyph glyph-name="circumflex" unicode="&#x2c6;" 
d="M325 578l-102 -81l-46 36l153 121l123 -121l-46 -36z" />
    <glyph glyph-name="caron" unicode="&#x2c7;" 
d="M316 573l102 81l46 -36l-153 -121l-123 121l46 36z" />
    <glyph glyph-name="uni02C9" unicode="&#x2c9;" 
d="M162 513l7 60h302l-7 -60h-302z" />
    <glyph glyph-name="breve" unicode="&#x2d8;" 
d="M181 617h59q5 -28 22 -43q19 -17 54 -17q38 0 61 18q21 16 31 42h63q-14 -48 -45 -79q-41 -41 -108 -41q-64 0 -98 32q-36 34 -39 88z" />
    <glyph glyph-name="dotaccent" unicode="&#x2d9;" 
d="M265 546q0 26 17 43t42 17q21 0 34 -13t13 -35q0 -25 -17 -42q-16 -16 -40 -16t-37 13q-12 16 -12 33z" />
    <glyph glyph-name="ring" unicode="&#x2da;" 
d="M235 575q0 45 27 70q24 24 63 24t61 -22t22 -60q0 -40 -25 -65q-26 -25 -67 -25q-38 0 -59 21q-22 22 -22 57zM280 579q0 -16 10 -26q10 -12 30 -12q19 0 31 12q13 13 13 34q0 19 -11 28q-10 10 -29 10t-31 -12q-13 -13 -13 -34z" />
    <glyph glyph-name="ogonek" unicode="&#x2db;" 
d="M350 -117l-15 -55q-27 -14 -60 -14q-38 0 -63 23q-21 21 -21 50q0 40 32 74q22 23 53 39h58q-35 -22 -52 -39q-29 -29 -29 -57q0 -14 8 -22q12 -12 38 -12q24 0 51 13z" />
    <glyph glyph-name="tilde" unicode="&#x2dc;" 
d="M199 497l-38 34q16 24 40 45q29 24 62 24q27 0 65 -20l17 -9q22 -11 37 -11q20 0 35 15q9 11 20 28l37 -34q-18 -32 -36 -47q-25 -22 -61 -22q-25 0 -55 14l-22 11q-32 15 -44 15q-18 0 -34 -16q-18 -16 -23 -27z" />
    <glyph glyph-name="hungarumlaut" unicode="&#x2dd;" 
d="M332 666l68 -32l-154 -136l-38 23zM466 666l66 -32l-152 -136l-38 23z" />
    <glyph glyph-name="acutecomb" unicode="&#x301;" horiz-adv-x="2" 
d="M-128 666l70 -34l-151 -135l-42 24z" />
    <glyph glyph-name="uni0394" unicode="&#x394;" horiz-adv-x="668" 
d="M640 0h-612l268 667h76zM334 574l-200 -504h400z" />
    <glyph glyph-name="uni0394" unicode="&#x2206;" horiz-adv-x="668" 
d="M640 0h-612l268 667h76zM334 574l-200 -504h400z" />
    <glyph glyph-name="uni03A9" unicode="&#x3a9;" horiz-adv-x="623" 
d="M379 0v70q85 45 133 113q51 74 51 169q0 125 -76 197q-63 59 -153 59t-153 -59q-76 -72 -76 -197q0 -95 51 -169q48 -68 133 -113v-70h-260v70h179q-74 39 -121 103q-58 80 -58 186q0 147 92 237q82 82 213 82t213 -82q92 -90 92 -237q0 -106 -58 -186q-47 -64 -121 -103
h179v-70h-260z" />
    <glyph glyph-name="uni03A9" unicode="&#x2126;" horiz-adv-x="623" 
d="M379 0v70q85 45 133 113q51 74 51 169q0 125 -76 197q-63 59 -153 59t-153 -59q-76 -72 -76 -197q0 -95 51 -169q48 -68 133 -113v-70h-260v70h179q-74 39 -121 103q-58 80 -58 186q0 147 92 237q82 82 213 82t213 -82q92 -90 92 -237q0 -106 -58 -186q-47 -64 -121 -103
h179v-70h-260z" />
    <glyph glyph-name="pi" unicode="&#x3c0;" horiz-adv-x="530" 
d="M217 0h-72v349h-74v66h482v-66h-74v-349h-72v349h-190v-349z" />
    <glyph glyph-name="afii10023" unicode="&#x401;" horiz-adv-x="482" 
d="M514 667l-9 -70h-272l-24 -198h264l-9 -70h-264l-31 -259h272l-9 -70h-346l82 667h346zM399 778q0 22 15 38q18 19 42 19q18 0 32 -12q13 -13 13 -31q0 -24 -16 -42q-17 -17 -40 -17q-21 0 -34 13q-12 12 -12 32zM209 778q0 22 15 38q18 19 42 19q18 0 32 -12
q13 -13 13 -31q0 -24 -16 -42q-17 -17 -40 -17q-21 0 -34 13q-12 12 -12 32z" />
    <glyph glyph-name="afii10051" unicode="&#x402;" horiz-adv-x="648" 
d="M523 597h-202l-26 -212q64 23 134 23q93 0 144 -49q56 -52 56 -156q0 -46 -15.5 -89t-44.5 -71q-51 -50 -148 -50q-40 0 -83 8l9 69q36 -7 69 -7q63 0 97 32q38 35 38 108q0 64 -31 99q-33 36 -104 36q-67 0 -129 -23l-39 -315h-74l73 597h-160l9 70h436z" />
    <glyph glyph-name="afii10052" unicode="&#x403;" horiz-adv-x="404" 
d="M86 0l82 667h304l-9 -70h-230l-73 -597h-74zM430 882l65 -45l-168 -117l-39 32z" />
    <glyph glyph-name="afii10053" unicode="&#x404;" horiz-adv-x="650" 
d="M675 612l-11 -92q-32 37 -78 61q-52 27 -112 27q-114 0 -195 -65t-98 -163h385l-9 -70h-387q-1 -113 69 -185q65 -67 168 -67q73 0 127 28q45 23 84 59l-11 -92q-48 -33 -85 -47q-49 -18 -120 -18q-141 0 -227 90q-84 88 -84 222q0 169 112 277q104 101 270 101
q76 0 131 -23q34 -15 71 -43z" />
    <glyph glyph-name="afii10054" unicode="&#x405;" horiz-adv-x="518" 
d="M513 574l-63 -39q-11 31 -37 52q-28 21 -75 21q-52 0 -84 -28q-35 -32 -35 -79q0 -36 28 -61q17 -15 56 -35l60 -28q53 -24 85 -57q45 -46 45 -117q0 -93 -56 -151q-62 -64 -173 -64q-88 0 -138 50q-49 50 -56 122l74 20q3 -53 36 -87q34 -35 95 -35q68 0 104 37t36 97
q0 53 -36 85q-20 19 -65 40l-53 25q-53 23 -79 51q-38 40 -38 103q0 75 52 126q57 56 147 56q68 0 110 -28q41 -27 60 -76z" />
    <glyph glyph-name="afii10055" unicode="&#x406;" horiz-adv-x="246" 
d="M168 667h74l-82 -667h-74z" />
    <glyph glyph-name="afii10056" unicode="&#x407;" horiz-adv-x="246" 
d="M168 667h74l-82 -667h-74zM234 778q0 27 18 44q13 13 33 13q17 0 29 -12q12 -13 12 -35q0 -23 -16 -41q-14 -14 -34 -14q-18 0 -30 12t-12 33zM112 778q0 27 18 44q13 13 33 13q17 0 29 -12q12 -13 12 -35q0 -23 -16 -41q-14 -14 -34 -14q-18 0 -30 12t-12 33z" />
    <glyph glyph-name="afii10057" unicode="&#x408;" horiz-adv-x="299" 
d="M221 667h74l-59 -482q-14 -115 -55 -156t-116 -41q-37 0 -67 15q-27 13 -46 34l48 58q10 -12 30 -25q21 -12 43 -12q32 0 52 20q27 27 37 107z" />
    <glyph glyph-name="afii10058" unicode="&#x409;" horiz-adv-x="924" 
d="M486 0l72 597h-257l-39 -319q-22 -178 -79 -235q-47 -49 -127 -49q-22 0 -42 6l9 70q16 -6 33 -6q43 0 73 28q18 17 30.5 47.5t17 57.5t10.5 72l49 398h406l-34 -277h74q125 0 180 -56q45 -46 45 -119q0 -100 -61 -157q-62 -58 -194 -58h-166zM599 320l-30 -250h86
q93 0 133 34q42 37 42 103q0 62 -45 92q-30 21 -110 21h-76z" />
    <glyph glyph-name="afii10059" unicode="&#x40a;" horiz-adv-x="939" 
d="M623 390h74q125 0 180 -56q45 -46 45 -121q0 -98 -61 -155q-62 -58 -194 -58h-166l40 320h-342l-39 -320h-74l82 667h74l-34 -277h342l32 277h75zM614 320l-30 -250h86q93 0 133 34q42 35 42 102q0 65 -45 93q-30 21 -110 21h-76z" />
    <glyph glyph-name="afii10060" unicode="&#x40b;" horiz-adv-x="681" 
d="M523 597h-202l-24 -196q50 7 118 7q119 0 172 -37q55 -38 55 -110q0 -3 -6 -69l-24 -192h-74l23 182q5 37 5 59q0 58 -47 80q-37 17 -106 17q-63 0 -124 -7l-41 -331h-74l73 597h-160l9 70h436z" />
    <glyph glyph-name="afii10061" unicode="&#x40c;" horiz-adv-x="568" 
d="M242 667l-35 -286l319 286h100l-354 -312l278 -355h-98l-235 306l-22 -19l-35 -287h-74l82 667h74zM474 882l65 -45l-168 -117l-39 32z" />
    <glyph glyph-name="afii10062" unicode="&#x40e;" horiz-adv-x="568" 
d="M90 667h85l160 -393l222 393h85l-383 -667h-80l108 186zM221 818l71 23q5 -25 24 -40q20 -16 58 -16q37 0 60 16q23 15 28 40l67 -23q-16 -48 -62 -74q-41 -23 -95 -23q-68 0 -108 32q-32 26 -43 65z" />
    <glyph glyph-name="afii10145" unicode="&#x40f;" horiz-adv-x="658" 
d="M86 0l82 667h74l-73 -597h338l73 597h74l-82 -667h-208l-19 -160h-70l19 160h-208z" />
    <glyph glyph-name="afii10017" unicode="&#x410;" horiz-adv-x="622" 
d="M534 0l-55 188h-284l-103 -188h-84l393 699l213 -699h-80zM233 258h226l-80 267z" />
    <glyph glyph-name="afii10018" unicode="&#x411;" horiz-adv-x="532" 
d="M86 0l82 667h331l-9 -70h-257l-25 -207h72q130 0 184 -56q43 -44 43 -120q0 -99 -55 -152q-63 -62 -198 -62h-168zM199 320l-30 -250h94q89 0 130 39q37 35 37 97t-42 92q-33 22 -104 22h-85z" />
    <glyph glyph-name="afii10019" unicode="&#x412;" horiz-adv-x="532" 
d="M168 667h109q115 0 166 -53q39 -39 39 -106q0 -55 -23 -96q-20 -36 -62 -56q41 -17 67 -43q41 -42 41 -111q0 -95 -61 -147q-64 -55 -184 -55h-174zM233 597l-27 -223h48q79 0 118 34q36 31 36 89q0 52 -37 78q-30 22 -89 22h-49zM198 308l-29 -238h90q85 0 125 29
q46 33 46 99q0 62 -49 90q-34 20 -108 20h-75z" />
    <glyph glyph-name="afii10020" unicode="&#x413;" horiz-adv-x="404" 
d="M86 0l82 667h304l-9 -70h-230l-73 -597h-74z" />
    <glyph glyph-name="afii10021" unicode="&#x414;" horiz-adv-x="640" 
d="M226 667h406l-73 -597h76l-26 -210h-70l17 140h-472l-17 -140h-70l26 210q47 6 82 41q60 60 80 224zM291 597l-32 -262q-15 -120 -43 -179q-24 -51 -67 -86h336l64 527h-258z" />
    <glyph glyph-name="afii10022" unicode="&#x415;" horiz-adv-x="482" 
d="M514 667l-9 -70h-272l-24 -198h264l-9 -70h-264l-31 -259h272l-9 -70h-346l82 667h346z" />
    <glyph glyph-name="afii10024" unicode="&#x416;" horiz-adv-x="810" 
d="M450 667h74l-35 -286l289 286h92l-320 -311l244 -356h-92l-207 305l-18 -18l-35 -287h-74l35 287l-14 18l-281 -305h-94l334 356l-242 311h90l219 -286z" />
    <glyph glyph-name="afii10025" unicode="&#x417;" horiz-adv-x="555" 
d="M202 536l-54 45q35 44 80 69q52 28 118 28q90 0 139 -50q40 -41 40 -103q0 -71 -35 -113q-27 -33 -76 -49q46 -9 75 -40q40 -40 40 -112q0 -96 -62 -158q-66 -65 -183 -65q-99 0 -158 46q-23 18 -41.5 46t-25.5 44t-9 24l71 32q15 -53 52 -86q42 -36 115 -36q76 0 120 42
t44 108q0 59 -43 89q-38 25 -112 25h-68l8 70h55q79 0 118 33q38 33 38 87q0 43 -31 70q-32 26 -82 26q-46 0 -80 -22q-28 -17 -53 -50z" />
    <glyph glyph-name="afii10026" unicode="&#x418;" horiz-adv-x="710" 
d="M550 0l62 509l-530 -539l86 697h74l-63 -511l530 539l-85 -695h-74z" />
    <glyph glyph-name="afii10027" unicode="&#x419;" horiz-adv-x="710" 
d="M550 0l62 509l-530 -539l86 697h74l-63 -511l530 539l-85 -695h-74zM303 818l71 23q5 -25 24 -40q20 -16 58 -16q37 0 60 16q23 15 28 40l67 -23q-16 -48 -62 -74q-41 -23 -95 -23q-68 0 -108 32q-32 26 -43 65z" />
    <glyph glyph-name="afii10028" unicode="&#x41a;" horiz-adv-x="568" 
d="M242 667l-35 -286l319 286h100l-354 -312l278 -355h-98l-235 306l-22 -19l-35 -287h-74l82 667h74z" />
    <glyph glyph-name="afii10029" unicode="&#x41b;" horiz-adv-x="646" 
d="M236 667h406l-82 -667h-74l73 597h-258l-39 -319q-22 -178 -79 -235q-47 -49 -127 -49q-22 0 -42 6l9 70q16 -6 33 -6q43 0 73 28q18 17 30.5 47.5t17 57.5t10.5 72z" />
    <glyph glyph-name="afii10030" unicode="&#x41c;" horiz-adv-x="863" 
d="M140 0h-77l197 704l187 -563l331 564l17 -705h-75l-6 464l-287 -492l-164 492z" />
    <glyph glyph-name="afii10031" unicode="&#x41d;" horiz-adv-x="662" 
d="M242 667l-33 -271h342l33 271h74l-82 -667h-74l40 326h-342l-40 -326h-74l82 667h74z" />
    <glyph glyph-name="afii10032" unicode="&#x41e;" horiz-adv-x="800" 
d="M399 -12q-138 0 -222 87q-86 88 -86 221q0 169 114 277q109 105 274 105q139 0 224 -84q88 -86 88 -218q0 -80 -28.5 -155t-83.5 -128q-109 -105 -280 -105zM471 608q-125 0 -211 -79q-92 -86 -92 -219q0 -113 69 -184q66 -68 170 -68q134 0 216 80q43 42 67 102.5
t24 121.5q0 108 -70 178q-68 68 -173 68z" />
    <glyph glyph-name="afii10033" unicode="&#x41f;" horiz-adv-x="662" 
d="M168 667h490l-82 -667h-74l73 597h-342l-73 -597h-74z" />
    <glyph glyph-name="afii10034" unicode="&#x420;" horiz-adv-x="457" 
d="M168 667h121q108 0 161 -51q46 -44 46 -126q0 -90 -54 -142q-60 -58 -189 -58h-57l-36 -290h-74zM233 597l-29 -237h63q81 0 120 36q36 32 36 92q0 58 -37 85q-31 24 -98 24h-55z" />
    <glyph glyph-name="afii10035" unicode="&#x421;" horiz-adv-x="650" 
d="M675 612l-11 -92q-35 39 -78 61q-53 27 -113 27q-130 0 -217 -87q-87 -89 -87 -214q0 -106 70 -180q66 -69 168 -69q73 0 127 28q45 23 84 59l-11 -92q-48 -33 -85 -47q-49 -18 -120 -18q-141 0 -227 88q-84 85 -84 223q0 169 112 278q104 101 270 101q76 0 131 -23
q34 -15 71 -43z" />
    <glyph glyph-name="afii10036" unicode="&#x422;" horiz-adv-x="426" 
d="M485 597h-162l-73 -597h-74l73 597h-162l9 70h398z" />
    <glyph glyph-name="afii10037" unicode="&#x423;" horiz-adv-x="568" 
d="M90 667h85l160 -393l222 393h85l-383 -667h-80l108 186z" />
    <glyph glyph-name="afii10038" unicode="&#x424;" horiz-adv-x="826" 
d="M376 0l12 94h-6q-155 0 -230 75q-59 61 -59 162q0 120 82 199q48 47 111.5 65.5t153.5 18.5h11l10 80h74l-10 -80h5q151 0 226 -73q63 -62 63 -160q0 -125 -81 -202q-92 -85 -268 -85h-8l-12 -94h-74zM396 164l47 380h-20q-130 0 -195 -64q-58 -58 -58 -149
q0 -81 55 -125q52 -42 159 -42h12zM517 544l-47 -380h20q108 0 171 43q82 56 82 167q0 83 -59 129q-52 41 -154 41h-13z" />
    <glyph glyph-name="afii10039" unicode="&#x425;" horiz-adv-x="502" 
d="M14 0l239 345l-139 322h82l107 -251l173 251h84l-223 -322l151 -345h-82l-119 274l-189 -274h-84z" />
    <glyph glyph-name="afii10040" unicode="&#x426;" horiz-adv-x="662" 
d="M86 0l82 667h74l-73 -597h338l73 597h74l-73 -597h76l-26 -210h-70l17 140h-492z" />
    <glyph glyph-name="afii10041" unicode="&#x427;" horiz-adv-x="592" 
d="M432 0l36 292q-65 -13 -118 -13q-104 0 -159 32q-67 38 -67 117q0 25 6 72l20 167h74l-20 -162q-5 -43 -5 -59q0 -51 37 -75q33 -22 120 -22q62 0 120 11l38 307h74l-82 -667h-74z" />
    <glyph glyph-name="afii10042" unicode="&#x428;" horiz-adv-x="922" 
d="M86 0l82 667h74l-73 -597h264l73 597h74l-73 -597h264l73 597h74l-82 -667h-750z" />
    <glyph glyph-name="afii10043" unicode="&#x429;" horiz-adv-x="926" 
d="M86 0l82 667h74l-73 -597h264l73 597h74l-73 -597h264l73 597h74l-73 -597h76l-26 -210h-70l17 140h-756z" />
    <glyph glyph-name="afii10044" unicode="&#x42a;" horiz-adv-x="612" 
d="M174 0l73 597h-160l9 70h234l-34 -277h74q125 0 180 -56q45 -46 45 -119q0 -100 -61 -157q-62 -58 -194 -58h-166zM287 320l-30 -250h86q93 0 133 34q42 35 42 102q0 65 -45 93q-30 21 -110 21h-76z" />
    <glyph glyph-name="afii10045" unicode="&#x42b;" horiz-adv-x="710" 
d="M632 667h74l-82 -667h-74zM86 0l81 667h75l-34 -277h74q125 0 180 -56q45 -45 45 -119q0 -100 -61 -157q-62 -58 -194 -58h-166zM199 320l-30 -250h86q93 0 133 34q42 35 42 102q0 65 -45 93q-30 21 -110 21h-76z" />
    <glyph glyph-name="afii10046" unicode="&#x42c;" horiz-adv-x="524" 
d="M86 0l81 667h75l-34 -277h74q125 0 180 -56q45 -46 45 -119q0 -100 -61 -157q-62 -58 -194 -58h-166zM199 320l-30 -250h86q93 0 133 34q42 35 42 102q0 65 -45 93q-30 21 -110 21h-76z" />
    <glyph glyph-name="afii10047" unicode="&#x42d;" horiz-adv-x="649" 
d="M114 520l11 92q47 28 90 44q59 22 124 22q134 0 214 -75q87 -80 87 -224q0 -193 -112 -300q-95 -91 -248 -91q-77 0 -140 23q-44 15 -83 44l11 90q34 -36 84 -60q58 -27 133 -27q119 0 189 69q68 67 83 183h-389l9 70h386q0 105 -67 170q-59 58 -161 58q-72 0 -137 -31
q-49 -24 -84 -57z" />
    <glyph glyph-name="afii10048" unicode="&#x42e;" horiz-adv-x="993" 
d="M208 389h100q23 102 94 179q103 110 265 110q144 0 232 -88q85 -85 85 -225q0 -169 -112 -279q-101 -98 -255 -98q-146 0 -234 93q-86 91 -85 238h-99l-39 -319h-74l82 667h74zM659 608q-115 0 -195 -77q-40 -39 -65 -98t-25 -123q0 -108 70 -181q68 -71 180 -71
q116 0 193 72q40 37 65 97.5t25 130.5q0 103 -61 172q-31 35 -80.5 56.5t-106.5 21.5z" />
    <glyph glyph-name="afii10049" unicode="&#x42f;" horiz-adv-x="510" 
d="M30 0l232 297q-65 8 -109 50q-42 41 -42 114q0 90 54 146q34 35 83 47.5t122 12.5h136l-82 -667h-74l36 292h-38l-226 -292h-92zM423 597h-72q-92 0 -130 -39q-32 -33 -32 -88q0 -63 45 -90q36 -22 96 -22h64z" />
    <glyph glyph-name="afii10065" unicode="&#x430;" horiz-adv-x="528" 
d="M432 356l7 59h72l-51 -415h-72l7 58q-24 -33 -52 -49q-37 -21 -86 -21q-86 0 -135 51q-54 57 -54 148q0 116 72 184q57 54 149 54q51 0 88 -20q35 -18 55 -49zM295 361q-59 0 -100 -39q-53 -50 -53 -130q0 -69 43 -109q32 -31 84 -31q65 0 103 41q47 49 47 135
q0 64 -39 100q-35 33 -85 33z" />
    <glyph glyph-name="afii10066" unicode="&#x431;" horiz-adv-x="529" 
d="M479 700h80q-16 -39 -39 -61q-16 -16 -40 -27.5t-37.5 -15.5t-45.5 -12q-118 -29 -162 -70q-50 -47 -77 -165h2q20 28 51 48q45 28 105 28q93 0 147 -54q51 -51 51 -135q0 -112 -68 -180t-177 -68q-95 0 -147 58q-50 56 -50 151q0 99 27 199t84 158q51 52 133 75
q12 3 54 13t61 17q35 14 48 41zM304 361q-67 0 -112 -45q-48 -48 -48 -125q0 -68 39 -105q35 -34 93 -34q70 0 115 46q49 51 49 129q0 60 -37 97t-99 37z" />
    <glyph glyph-name="afii10067" unicode="&#x432;" horiz-adv-x="431" 
d="M119 415h145q58 0 88 -23q35 -27 35 -73q0 -35 -16 -58t-40 -33q29 -8 48 -29q25 -26 25 -67q0 -56 -35 -91q-43 -41 -121 -41h-107h-73zM170 246h76q36 0 55 16q18 14 18 41q0 29 -23 40q-16 8 -54 8h-59zM148 64h91q48 0 69 14q26 18 26 51q0 30 -25 46q-20 11 -64 11
h-82z" />
    <glyph glyph-name="afii10068" unicode="&#x433;" horiz-adv-x="318" 
d="M68 0l51 415h246l-8 -66h-174l-43 -349h-72z" />
    <glyph glyph-name="afii10069" unicode="&#x434;" horiz-adv-x="460" 
d="M149 415h292l-43 -349h62l-22 -176h-66l14 110h-316l-14 -110h-66l22 176q38 2 66 30q17 17 27.5 42.5t13.5 41.5t7 50zM326 66l35 283h-148l-16 -134q-6 -60 -22 -91q-18 -36 -47 -58h198z" />
    <glyph glyph-name="afii10070" unicode="&#x435;" horiz-adv-x="483" 
d="M395 139l61 -33q-34 -57 -77 -86q-49 -32 -120 -32q-87 0 -137 52q-55 57 -55 149q0 107 71 178q58 58 145 58q86 0 135 -49q61 -63 47 -183h-323q-1 -72 37 -110q31 -31 82 -31q47 0 80 23q31 22 54 64zM154 253h242q-2 50 -35 82q-27 26 -76 26q-56 0 -91 -35
q-29 -30 -40 -73z" />
    <glyph glyph-name="afii10072" unicode="&#x436;" horiz-adv-x="596" 
d="M313 415h72l-21 -170l177 170h84l-207 -196l170 -219h-86l-133 175l-15 -14l-20 -161h-72l20 161l-13 14l-175 -175h-90l227 224l-156 191h82l135 -170z" />
    <glyph glyph-name="afii10073" unicode="&#x437;" horiz-adv-x="404" 
d="M141 309l-45 41q26 32 59 52q39 23 93 23q61 0 96 -35q27 -29 27 -69q0 -36 -19 -61q-14 -19 -40 -30q27 -9 47 -34q19 -25 19 -58q0 -72 -53 -114q-45 -36 -128 -36q-67 0 -108 32q-15 12 -28 30t-18.5 29t-6.5 15l64 26q10 -30 32 -47q27 -21 70 -21q47 0 72 18
q30 21 30 60q0 30 -24 45q-21 13 -61 13h-42l8 66h35q49 0 69 19q14 14 14 36q0 21 -14 35q-17 17 -51 17t-59 -16q-21 -14 -38 -36z" />
    <glyph glyph-name="afii10074" unicode="&#x438;" horiz-adv-x="492" 
d="M119 415h72l-34 -276l322 308l-55 -447h-72l34 279l-322 -308z" />
    <glyph glyph-name="afii10075" unicode="&#x439;" horiz-adv-x="492" 
d="M119 415h72l-34 -276l322 308l-55 -447h-72l34 279l-322 -308zM180 594l60 23q8 -29 28 -44q20 -16 55 -16q33 0 55 15q23 17 32 45l60 -23q-21 -46 -54 -70q-38 -27 -93 -27q-58 0 -95 28q-35 28 -48 69z" />
    <glyph glyph-name="afii10076" unicode="&#x43a;" horiz-adv-x="422" 
d="M119 415h72l-21 -170l189 170h88l-207 -187l174 -228h-90l-140 182l-24 -21l-20 -161h-72z" />
    <glyph glyph-name="afii10077" unicode="&#x43b;" horiz-adv-x="450" 
d="M433 415l-51 -415h-72l43 349h-148l-23 -182q-4 -29 -7.5 -46.5t-14 -41t-27.5 -40.5q-51 -51 -125 -39l8 66q35 -8 62 15q24 22 33 88l30 246h292z" />
    <glyph glyph-name="afii10078" unicode="&#x43c;" horiz-adv-x="580" 
d="M20 0l155 447l130 -338l210 338l45 -447h-72l-23 257l-177 -286l-107 286l-85 -257h-76z" />
    <glyph glyph-name="afii10079" unicode="&#x43d;" horiz-adv-x="476" 
d="M68 0l51 415h72l-21 -170h196l21 170h72l-51 -415h-72l22 179h-196l-22 -179h-72z" />
    <glyph glyph-name="afii10080" unicode="&#x43e;" horiz-adv-x="528" 
d="M268 -12q-94 0 -148 57q-53 57 -53 145q0 103 75 173q68 62 166 62q95 0 152 -57q51 -51 51 -136q0 -112 -70 -180q-65 -64 -173 -64zM307 361q-66 0 -113 -46q-53 -51 -53 -130q0 -56 36 -94q37 -39 96 -39q69 0 113 48q50 53 50 131q0 56 -34 92q-36 38 -95 38z" />
    <glyph glyph-name="afii10081" unicode="&#x43f;" horiz-adv-x="470" 
d="M119 415h334l-51 -415h-72l43 349h-190l-43 -349h-72z" />
    <glyph glyph-name="afii10082" unicode="&#x440;" horiz-adv-x="528" 
d="M147 58l-36 -288h-72l80 645h72l-7 -58q23 31 58 49q35 19 85 19q81 0 130 -48q54 -52 54 -143q0 -121 -73 -192q-55 -54 -149 -54q-58 0 -95 23q-28 18 -47 47zM287 52q56 0 94 35q56 52 56 142q0 61 -36 97q-33 35 -92 35q-62 0 -103 -44q-46 -49 -46 -126
q0 -60 34 -99q36 -40 93 -40z" />
    <glyph glyph-name="afii10083" unicode="&#x441;" horiz-adv-x="440" 
d="M442 385l-10 -86q-26 29 -52 44q-33 18 -75 18q-65 0 -111 -43q-53 -51 -53 -126q0 -64 40 -104q36 -36 96 -36q42 0 77 18q31 16 58 47l-10 -86q-31 -23 -60 -32q-33 -11 -74 -11q-92 0 -146 55q-55 57 -55 145q0 104 72 174q63 63 168 63q76 0 135 -40z" />
    <glyph glyph-name="afii10084" unicode="&#x442;" horiz-adv-x="348" 
d="M383 349h-130l-43 -349h-72l43 349h-130l8 66h332z" />
    <glyph glyph-name="afii10085" unicode="&#x443;" horiz-adv-x="460" 
d="M39 -230l165 269l-145 376h80l110 -297l172 297h82l-384 -645h-80z" />
    <glyph glyph-name="afii10086" unicode="&#x444;" horiz-adv-x="653" 
d="M261 -230l28 223q-108 0 -162 52q-59 55 -59 142q0 92 60 158q70 77 214 77l30 245h72l-30 -245q15 0 34 -1.5t62 -17t72 -42.5q55 -53 55 -137q0 -98 -59 -160q-67 -71 -213 -71h-4l-28 -223h-72zM297 57l36 301q-95 0 -144 -48q-48 -48 -48 -119q0 -57 37 -92
q44 -42 119 -42zM406 358l-37 -301h4q98 0 146 49q43 44 43 117q0 61 -36 95q-43 40 -120 40z" />
    <glyph glyph-name="afii10087" unicode="&#x445;" horiz-adv-x="452" 
d="M8 0l204 222l-127 193h86l90 -141l126 141h88l-176 -194l145 -221h-86l-110 169l-152 -169h-88z" />
    <glyph glyph-name="afii10088" unicode="&#x446;" horiz-adv-x="474" 
d="M68 0l51 415h72l-43 -349h186l43 349h72l-43 -349h68l-22 -176h-66l14 110h-332z" />
    <glyph glyph-name="afii10089" unicode="&#x447;" horiz-adv-x="430" 
d="M290 0l20 166q-39 -12 -83 -12q-73 0 -109 31q-29 26 -29 73q0 16 6 61l12 96h72l-11 -92q-5 -37 -5 -50q0 -29 21 -41q19 -12 63 -12q43 0 71 11l23 184h72l-51 -415h-72z" />
    <glyph glyph-name="afii10090" unicode="&#x448;" horiz-adv-x="672" 
d="M68 0l51 415h72l-43 -349h160l43 349h72l-43 -349h160l43 349h72l-51 -415h-536z" />
    <glyph glyph-name="afii10091" unicode="&#x449;" horiz-adv-x="680" 
d="M68 0l51 415h72l-43 -349h160l43 349h72l-43 -349h160l43 349h72l-43 -349h68l-22 -176h-66l14 110h-538z" />
    <glyph glyph-name="afii10092" unicode="&#x44a;" horiz-adv-x="431" 
d="M98 0l43 349h-90l8 66h162l-20 -159h75q71 0 108 -32q35 -31 35 -85q0 -60 -36 -96q-42 -43 -126 -43h-86h-73zM178 64h75q45 0 68 17q24 19 24 51t-22 47q-18 13 -61 13h-68z" />
    <glyph glyph-name="afii10093" unicode="&#x44b;" horiz-adv-x="562" 
d="M422 0l51 415h72l-51 -415h-72zM68 0l51 415h72l-20 -159h75q71 0 108 -32q35 -31 35 -85q0 -60 -36 -96q-42 -43 -126 -43h-86h-73zM148 64h75q45 0 68 17q24 19 24 51t-22 47q-18 13 -61 13h-68z" />
    <glyph glyph-name="afii10094" unicode="&#x44c;" horiz-adv-x="401" 
d="M68 0l51 415h72l-20 -159h75q71 0 108 -32q35 -31 35 -85q0 -60 -36 -96q-42 -43 -126 -43h-87h-72zM148 64h75q45 0 68 17q24 17 24 51q0 32 -22 47q-18 13 -61 13h-68z" />
    <glyph glyph-name="afii10095" unicode="&#x44d;" horiz-adv-x="426" 
d="M82 330l9 70q55 25 118 25q91 0 144 -49q56 -52 56 -147q0 -109 -65 -176q-64 -65 -172 -65q-75 0 -129 28l9 70q49 -34 115 -34q76 0 118 41q36 34 44 87h-219l8 64h217q-2 51 -39 83q-39 34 -105 34q-58 0 -109 -31z" />
    <glyph glyph-name="afii10096" unicode="&#x44e;" horiz-adv-x="692" 
d="M170 245h74q16 65 66 115q67 65 166 65q88 0 144 -53q55 -53 55 -141q0 -112 -71 -182q-62 -61 -166 -61q-100 0 -153 57q-51 53 -51 134h-72l-22 -179h-72l51 415h72zM470 361q-66 0 -109 -43q-52 -52 -52 -132q0 -62 35 -97q36 -37 95 -37q67 0 110 45q51 51 51 133
q0 57 -35 94t-95 37z" />
    <glyph glyph-name="afii10097" unicode="&#x44f;" horiz-adv-x="408" 
d="M20 0l150 171q-5 0 -15 2t-27.5 10t-30.5 20q-27 27 -27 71q0 64 39 101q41 40 137 40h145l-51 -415h-72l21 167h-40l-139 -167h-90zM296 227l15 124h-74q-46 0 -69 -16q-24 -17 -24 -48q0 -32 22 -46q21 -14 66 -14h64z" />
    <glyph glyph-name="afii10071" unicode="&#x451;" horiz-adv-x="483" 
d="M395 139l61 -33q-34 -57 -77 -86q-49 -32 -120 -32q-87 0 -137 52q-55 57 -55 149q0 107 71 178q58 58 145 58q86 0 135 -49q61 -63 47 -183h-323q-1 -72 37 -110q31 -31 82 -31q47 0 80 23q31 22 54 64zM154 253h242q-2 50 -35 82q-27 26 -76 26q-56 0 -91 -35
q-29 -30 -40 -73zM351 543q0 23 17 40t40 17q18 0 31 -12.5t13 -31.5q0 -22 -18 -40q-16 -16 -38 -16q-18 0 -31.5 12t-13.5 31zM177 543q0 23 17 40t40 17q18 0 31 -12.5t13 -31.5q0 -22 -18 -40q-16 -16 -38 -16q-18 0 -31.5 12t-13.5 31z" />
    <glyph glyph-name="afii10099" unicode="&#x452;" horiz-adv-x="469" 
d="M68 0l63 514h-98l7 60h98l20 155h72l-20 -155h200l-7 -60h-200l-23 -187q14 21 42 39q31 19 76 19q63 0 100 -36q33 -33 33 -93q0 -17 -6 -69l-33 -275q-5 -43 -13 -67t-29 -43q-34 -32 -91 -32q-32 0 -58 9l9 70q25 -9 46 -9q30 0 44 16q14 14 20 60l30 251q6 47 6 71
q0 41 -21 62t-58 21q-47 0 -74 -29q-30 -31 -41 -115l-22 -177h-72z" />
    <glyph glyph-name="afii10100" unicode="&#x453;" horiz-adv-x="318" 
d="M68 0l51 415h246l-8 -66h-174l-43 -349h-72zM334 666l70 -34l-151 -135l-42 24z" />
    <glyph glyph-name="afii10101" unicode="&#x454;" horiz-adv-x="440" 
d="M442 385l-10 -86q-26 29 -52 44q-33 18 -74 18q-63 0 -106 -37q-37 -32 -50 -80h217l-8 -64h-218q3 -59 40 -92q37 -36 96 -36q42 0 77 18q31 16 58 47l-10 -86q-31 -23 -60 -32q-33 -11 -74 -11q-92 0 -146 55q-55 57 -55 145q0 104 72 174q63 63 168 63q76 0 135 -40z
" />
    <glyph glyph-name="afii10102" unicode="&#x455;" horiz-adv-x="350" 
d="M339 350l-63 -31q-5 16 -17 28q-14 14 -36 14q-24 0 -40 -13q-16 -15 -16 -37q0 -17 12 -29q9 -9 41 -24l38 -19q32 -16 53 -37q27 -30 27 -74q0 -58 -35 -96q-41 -44 -119 -44q-54 0 -87 27q-36 30 -49 79l63 26q8 -31 25 -49q19 -19 50 -19q36 0 56 18q21 20 21 53
q0 26 -22 43q-10 8 -43 25l-23 11q-37 18 -55 38q-23 26 -23 65q0 50 35 85t94 35q44 0 75 -25q26 -21 38 -50z" />
    <glyph glyph-name="afii10103" unicode="&#x456;" horiz-adv-x="208" 
d="M119 415h72l-51 -415h-72zM123 566q0 22 14 38q15 19 43 19q20 0 32 -12q13 -13 13 -33q0 -24 -16 -40q-16 -17 -40 -17q-20 0 -34 14q-12 12 -12 31z" />
    <glyph glyph-name="afii10104" unicode="&#x457;" horiz-adv-x="208" 
d="M121 415h72l-51 -415h-72zM184 566q0 24 13 40q13 17 33 17q17 0 29 -13q11 -13 11 -32q0 -26 -17 -43q-12 -12 -28 -12q-17 0 -29 12t-12 31zM77 566q0 24 13 40q13 17 33 17q17 0 29 -13q11 -13 11 -32q0 -26 -17 -43q-12 -12 -28 -12q-17 0 -29 12t-12 31z" />
    <glyph glyph-name="afii10105" unicode="&#x458;" horiz-adv-x="207" 
d="M119 415h72l-80 -645h-72zM122 566q0 22 14 38q15 19 43 19q20 0 32 -12q13 -13 13 -33q0 -24 -16 -40q-16 -17 -40 -17q-20 0 -34 14q-12 12 -12 31z" />
    <glyph glyph-name="afii10106" unicode="&#x459;" horiz-adv-x="643" 
d="M310 0l43 349h-148l-23 -182q-4 -29 -7.5 -46.5t-14 -41t-27.5 -40.5q-51 -51 -125 -39l8 66q35 -8 62 15q24 22 33 88l30 246h292l-20 -159h75q71 0 108 -32q35 -31 35 -85q0 -60 -36 -96q-42 -43 -126 -43h-159zM390 64h75q45 0 68 17q24 17 24 51q0 32 -22 47
q-18 13 -61 13h-68z" />
    <glyph glyph-name="afii10107" unicode="&#x45a;" horiz-adv-x="669" 
d="M336 0l24 192h-196l-24 -192h-72l51 415h72l-19 -159h195l20 159h72l-20 -159h75q71 0 108 -32q35 -31 35 -85q0 -60 -36 -96q-42 -43 -126 -43h-159zM416 64h75q45 0 68 17q24 17 24 51q0 32 -22 47q-18 13 -61 13h-68z" />
    <glyph glyph-name="afii10108" unicode="&#x45b;" horiz-adv-x="469" 
d="M68 0l63 514h-98l7 60h98l20 155h72l-20 -155h200l-7 -60h-200l-23 -187q14 21 42 39q31 19 76 19q63 0 100 -36q33 -33 33 -93q0 -25 -5 -63l-24 -193h-72l20 167q6 47 6 71q0 41 -21 62t-58 21q-47 0 -74 -29q-30 -31 -41 -115l-22 -177h-72z" />
    <glyph glyph-name="afii10109" unicode="&#x45c;" horiz-adv-x="422" 
d="M119 415h72l-21 -170l189 170h88l-207 -187l174 -228h-90l-140 182l-24 -21l-20 -161h-72zM355 666l70 -34l-151 -135l-42 24z" />
    <glyph glyph-name="afii10110" unicode="&#x45e;" horiz-adv-x="460" 
d="M39 -230l165 269l-145 376h80l110 -297l172 297h82l-384 -645h-80zM148 594l60 23q8 -29 28 -44q20 -16 55 -16q33 0 55 15q23 17 32 45l60 -23q-21 -46 -54 -70q-38 -27 -93 -27q-58 0 -95 28q-35 28 -48 69z" />
    <glyph glyph-name="afii10193" unicode="&#x45f;" horiz-adv-x="466" 
d="M68 0l51 415h72l-43 -349h186l43 349h72l-51 -415h-132l-14 -120h-66l14 120h-132z" />
    <glyph glyph-name="afii10146" unicode="&#x462;" horiz-adv-x="612" 
d="M174 0l63 517h-160l9 70h160l13 107h74l-13 -107h180l-9 -70h-180l-15 -127h74q125 0 180 -56q45 -46 45 -118q0 -100 -61 -158q-62 -58 -194 -58h-166zM287 320l-30 -250h86q93 0 133 34q42 35 42 102q0 65 -45 93q-30 21 -110 21h-76z" />
    <glyph glyph-name="afii10194" unicode="&#x463;" horiz-adv-x="431" 
d="M98 0l43 349h-90l8 66h90l31 252h72l-31 -252h120l-8 -66h-120l-12 -93h75q71 0 108 -32q35 -31 35 -85q0 -60 -36 -96q-42 -43 -126 -43h-159zM178 64h75q45 0 68 17q24 17 24 51q0 32 -22 47q-18 13 -61 13h-68z" />
    <glyph glyph-name="afii10147" unicode="&#x472;" horiz-adv-x="800" 
d="M399 -12q-138 0 -222 87q-86 88 -86 221q0 169 114 277q109 105 274 105q139 0 224 -84q88 -86 88 -218q0 -80 -28.5 -155t-83.5 -128q-109 -105 -280 -105zM176 380h537q-6 96 -69 160q-68 68 -173 68q-127 0 -211 -79q-65 -61 -84 -149zM710 310h-542q-1 -110 69 -184
q66 -68 170 -68q134 0 216 80q70 68 87 172z" />
    <glyph glyph-name="afii10195" unicode="&#x473;" horiz-adv-x="528" 
d="M268 -12q-94 0 -148 57q-53 57 -53 145q0 103 75 173q68 62 166 62q95 0 152 -57q51 -51 51 -136q0 -112 -70 -180q-65 -64 -173 -64zM150 244h285q-3 46 -33 79q-37 38 -97 38q-59 0 -103 -37q-39 -32 -52 -80zM429 180h-288q3 -54 36 -89q35 -39 98 -39q58 0 99 34
q41 35 55 94z" />
    <glyph glyph-name="afii10148" unicode="&#x474;" horiz-adv-x="556" 
d="M90 667h81l125 -509l251 509h83l-357 -707z" />
    <glyph glyph-name="afii10196" unicode="&#x475;" horiz-adv-x="424" 
d="M59 415h78l90 -280l158 280h82l-258 -442z" />
    <glyph glyph-name="afii10050" unicode="&#x490;" horiz-adv-x="404" 
d="M86 0l82 667h234l17 140h70l-26 -210h-230l-73 -597h-74z" />
    <glyph glyph-name="afii10098" unicode="&#x491;" horiz-adv-x="328" 
d="M68 0l51 415h180l13 110h66l-21 -176h-174l-43 -349h-72z" />
    <glyph glyph-name="uni0492" unicode="&#x492;" horiz-adv-x="404" 
d="M86 0l41 334h-86l8 66h86l33 267h304l-9 -70h-230l-24 -197h136l-8 -66h-136l-41 -334h-74z" />
    <glyph glyph-name="uni0493" unicode="&#x493;" horiz-adv-x="318" 
d="M68 0l23 188h-68l7 60h68l21 167h246l-8 -66h-174l-13 -101h100l-7 -60h-100l-23 -188h-72z" />
    <glyph glyph-name="uni0494" unicode="&#x494;" horiz-adv-x="560" 
d="M501 597h-268l-26 -212q64 23 132 23q93 0 146 -49q56 -52 56 -156q0 -46 -15.5 -89t-44.5 -71q-51 -50 -148 -50q-40 0 -83 8l9 69q36 -7 69 -7q63 0 97 32q38 35 38 108q0 64 -31 99q-33 36 -104 36q-67 0 -129 -23l-39 -315h-74l82 667h342z" />
    <glyph glyph-name="uni0495" unicode="&#x495;" horiz-adv-x="430" 
d="M68 0l51 415h246l-8 -66h-174l-14 -113h12q108 0 163 -57q45 -48 45 -126q0 -137 -108 -208q-64 -43 -147 -53l8 70q62 10 100 38q32 23 52.5 63.5t20.5 85.5q0 62 -37 94q-30 27 -97 27h-20l-21 -170h-72z" />
    <glyph glyph-name="uni0496" unicode="&#x496;" horiz-adv-x="810" 
d="M450 667h74l-35 -286l289 286h92l-320 -311l196 -286h57l-26 -210h-70l17 140h-22l-207 305l-18 -18l-35 -287h-74l35 287l-14 18l-281 -305h-94l334 356l-242 311h90l219 -286z" />
    <glyph glyph-name="uni0497" unicode="&#x497;" horiz-adv-x="596" 
d="M313 415h72l-21 -170l177 170h84l-207 -196l119 -153h58l-22 -176h-66l14 110h-19l-133 175l-15 -14l-20 -161h-72l20 161l-13 14l-175 -175h-90l227 224l-156 191h82l135 -170z" />
    <glyph glyph-name="uni0498" unicode="&#x498;" horiz-adv-x="555" 
d="M202 536l-54 45q35 44 80 69q52 28 118 28q89 0 136 -46q43 -41 43 -111q0 -65 -35 -109q-27 -33 -76 -49q46 -9 75 -40q40 -41 40 -110q0 -96 -62 -160q-58 -60 -150 -64l-19 -149h-70l19 150q-71 3 -121 44q-51 40 -76 114l71 32q15 -53 52 -86q42 -36 115 -36
q76 0 120 42t44 108q0 59 -43 89q-38 25 -112 25h-68l8 70h55q79 0 118 33q38 33 38 87q0 43 -31 70q-32 26 -82 26q-46 0 -80 -22q-28 -17 -53 -50z" />
    <glyph glyph-name="uni0499" unicode="&#x499;" horiz-adv-x="404" 
d="M141 309l-45 41q26 32 59 52q39 23 93 23q61 0 96 -35q27 -28 27 -70q0 -34 -19 -60q-14 -19 -40 -30q23 -8 39 -25q27 -28 27 -69q0 -61 -41 -102q-42 -42 -110 -45l-14 -109h-66l14 111q-49 5 -83 39q-27 26 -42 64l64 26q12 -31 32 -47q26 -21 70 -21q53 0 80 25
q22 22 22 53q0 30 -24 45q-21 13 -61 13h-42l8 66h35q49 0 69 19q14 14 14 36q0 21 -14 35q-17 17 -51 17t-59 -16q-20 -13 -38 -36z" />
    <glyph glyph-name="uni049A" unicode="&#x49a;" horiz-adv-x="568" 
d="M242 667l-35 -286l319 286h100l-352 -311l224 -286h63l-26 -210h-70l17 140h-30l-235 306l-22 -19l-35 -287h-74l82 667h74z" />
    <glyph glyph-name="uni049B" unicode="&#x49b;" horiz-adv-x="422" 
d="M119 415h72l-21 -170l189 170h88l-207 -187l124 -162h58l-22 -176h-66l14 110h-24l-140 182l-24 -21l-20 -161h-72z" />
    <glyph glyph-name="uni049C" unicode="&#x49c;" horiz-adv-x="649" 
d="M168 667h74l-36 -291h80l17 140h66l-17 -140l269 291h87l-298 -322l227 -345h-95l-198 310l-18 -150h-66l18 150h-80l-38 -310h-74z" />
    <glyph glyph-name="uni049D" unicode="&#x49d;" horiz-adv-x="450" 
d="M119 415h72l-21 -170h50l12 100h60l-12 -100l130 170h78l-153 -199l109 -216h-78l-93 185l-14 -110h-60l14 110h-50l-23 -185h-72z" />
    <glyph glyph-name="uni04A0" unicode="&#x4a0;" horiz-adv-x="656" 
d="M714 667l-352 -311l278 -356h-100l-235 306l-22 -19l-35 -287h-74l73 597h-160l9 70h234l-35 -286l319 286h100z" />
    <glyph glyph-name="uni04A1" unicode="&#x4a1;" horiz-adv-x="452" 
d="M98 0l43 349h-90l8 66h162l-21 -170l189 170h88l-207 -187l174 -228h-90l-140 182l-24 -21l-20 -161h-72z" />
    <glyph glyph-name="uni04A2" unicode="&#x4a2;" horiz-adv-x="666" 
d="M86 0l82 667h74l-33 -271h342l33 271h74l-73 -597h76l-26 -210h-70l17 140h-80l40 326h-342l-40 -326h-74z" />
    <glyph glyph-name="uni04A3" unicode="&#x4a3;" horiz-adv-x="484" 
d="M68 0l51 415h72l-21 -170h196l21 170h72l-43 -349h68l-22 -176h-66l14 110h-74l22 179h-196l-22 -179h-72z" />
    <glyph glyph-name="uni04A4" unicode="&#x4a4;" horiz-adv-x="820" 
d="M86 0l82 667h74l-33 -271h342l33 271h304l-9 -70h-230l-73 -597h-74l40 326h-342l-40 -326h-74z" />
    <glyph glyph-name="uni04A5" unicode="&#x4a5;" horiz-adv-x="586" 
d="M68 0l51 415h72l-21 -170h196l21 170h246l-8 -66h-174l-43 -349h-72l22 179h-196l-22 -179h-72z" />
    <glyph glyph-name="uni04AA" unicode="&#x4aa;" horiz-adv-x="650" 
d="M675 612l-11 -92q-35 39 -78 61q-53 27 -113 27q-130 0 -217 -87q-87 -89 -87 -214q0 -106 70 -180q66 -69 168 -69q73 0 127 28q45 23 84 59l-11 -92q-77 -55 -161 -64l-19 -149h-70l19 150q-120 2 -201 86q-84 87 -84 222q0 170 112 279q102 101 269 101q72 0 125 -21
q44 -17 78 -45z" />
    <glyph glyph-name="uni04AB" unicode="&#x4ab;" horiz-adv-x="440" 
d="M442 385l-10 -86q-26 29 -52 44q-33 18 -75 18q-65 0 -111 -43q-53 -51 -53 -126q0 -64 40 -104q36 -36 96 -36q42 0 77 18q31 16 58 47l-10 -86q-42 -33 -100 -42l-14 -109h-66l14 111q-67 5 -114 52q-55 57 -55 143q0 49 19 96t53 80q65 63 165 63q77 0 138 -40z" />
    <glyph glyph-name="uni04AE" unicode="&#x4ae;" horiz-adv-x="530" 
d="M227 0l35 287l-172 380h84l133 -298l209 298h88l-268 -380l-35 -287h-74z" />
    <glyph glyph-name="uni04AF" unicode="&#x4af;" horiz-adv-x="424" 
d="M59 415h78l90 -280l158 280h82l-213 -364l-34 -281h-72l34 281z" />
    <glyph glyph-name="uni04B0" unicode="&#x4b0;" horiz-adv-x="530" 
d="M227 0l27 221h-190l8 66h190l-172 380h84l133 -298l209 298h88l-268 -380h190l-8 -66h-190l-27 -221h-74z" />
    <glyph glyph-name="uni04B1" unicode="&#x4b1;" horiz-adv-x="424" 
d="M59 415h78l90 -280l158 280h82l-213 -364l-6 -51h120l-8 -66h-120l-21 -164h-72l21 164h-120l8 66h120l6 51z" />
    <glyph glyph-name="uni04B2" unicode="&#x4b2;" horiz-adv-x="518" 
d="M14 0l239 345l-139 322h82l107 -251l173 251h84l-223 -322l122 -275h55l-26 -210h-70l17 140h-29l-119 274l-189 -274h-84z" />
    <glyph glyph-name="uni04B3" unicode="&#x4b3;" horiz-adv-x="452" 
d="M8 0l204 222l-127 193h86l90 -141l126 141h88l-176 -194l101 -155h51l-22 -176h-66l14 110h-19l-110 169l-152 -169h-88z" />
    <glyph glyph-name="uni04B6" unicode="&#x4b6;" horiz-adv-x="596" 
d="M512 0h-80l36 292q-65 -13 -118 -13q-104 0 -159 32q-67 38 -67 117q0 25 6 72l20 167h74l-20 -162q-5 -43 -5 -59q0 -51 37 -75q33 -22 120 -22q62 0 120 11l38 307h74l-73 -597h76l-26 -210h-70z" />
    <glyph glyph-name="uni04B7" unicode="&#x4b7;" horiz-adv-x="438" 
d="M341 415h72l-43 -349h68l-22 -176h-66l14 110h-74l20 166q-39 -12 -83 -12q-73 0 -109 31q-29 26 -29 73q0 16 6 61l12 96h72l-11 -92q-5 -37 -5 -50q0 -29 21 -41q19 -12 63 -12q43 0 71 11z" />
    <glyph glyph-name="uni04B8" unicode="&#x4b8;" horiz-adv-x="623" 
d="M463 0l35 285q-60 -8 -117 -7l-17 -138h-66l17 139q-80 0 -132 34q-59 38 -59 114q0 18 7 76l20 164h74l-20 -161q-6 -47 -6 -62q0 -56 38 -79q31 -20 87 -18l18 149h66l-18 -153q61 -2 116 8l39 316h74l-82 -667h-74z" />
    <glyph glyph-name="uni04B9" unicode="&#x4b9;" horiz-adv-x="460" 
d="M320 0l20 161q-35 -6 -65 -6l-12 -100h-60l12 99q-56 -4 -92 24q-34 28 -34 75q0 12 5 57l13 105h72l-13 -103q-3 -20 -3 -35q0 -30 16 -44q17 -14 44 -12l13 104h60l-13 -106q34 0 65 8l23 188h72l-51 -415h-72z" />
    <glyph glyph-name="uni04BA" unicode="&#x4ba;" horiz-adv-x="593" 
d="M242 667l-33 -266q50 7 118 7q119 0 172 -37q55 -38 55 -110q0 -3 -6 -69l-24 -192h-74l23 182q5 37 5 59q0 58 -47 80q-37 17 -106 17q-63 0 -124 -7l-41 -331h-74l82 667h74z" />
    <glyph glyph-name="uni04BB" unicode="&#x4bb;" horiz-adv-x="469" 
d="M68 0l90 729h72l-45 -362q14 21 42 39q31 19 76 19q63 0 100 -36q33 -33 33 -93q0 -19 -6 -69l-28 -227h-72l25 207q6 51 6 71q0 41 -21 62t-58 21q-47 0 -74 -29q-30 -31 -41 -115l-27 -217h-72z" />
    <glyph glyph-name="uni04C0" unicode="&#x4c0;" horiz-adv-x="246" 
d="M168 667h74l-82 -667h-74z" />
    <glyph glyph-name="uni04C1" unicode="&#x4c1;" horiz-adv-x="810" 
d="M450 667h74l-35 -286l289 286h92l-320 -311l244 -356h-92l-207 305l-18 -18l-35 -287h-74l35 287l-14 18l-281 -305h-94l334 356l-242 311h90l219 -286zM352 818l71 23q5 -25 24 -40q20 -16 58 -16q37 0 60 16q23 15 28 40l67 -23q-16 -48 -62 -74q-41 -23 -95 -23
q-68 0 -108 32q-32 26 -43 65z" />
    <glyph glyph-name="uni04C2" unicode="&#x4c2;" horiz-adv-x="596" 
d="M313 415h72l-21 -170l177 170h84l-207 -196l170 -219h-86l-133 175l-15 -14l-20 -161h-72l20 161l-13 14l-175 -175h-90l227 224l-156 191h82l135 -170zM226 594l60 23q8 -29 28 -44q20 -16 55 -16q33 0 55 15q23 17 32 45l60 -23q-21 -46 -54 -70q-38 -27 -93 -27
q-58 0 -95 28q-35 28 -48 69z" />
    <glyph glyph-name="uni04C3" unicode="&#x4c3;" horiz-adv-x="580" 
d="M242 667l-37 -296l315 296h100l-290 -272q42 0 85.5 -19t73.5 -48q73 -71 73 -200q0 -150 -80 -229q-59 -59 -148 -59q-39 0 -80 16l20 70q27 -15 62 -15q55 0 93 38q27 27 42 74.5t15 96.5q0 105 -54 157q-51 51 -144 51q-40 0 -89 -11l-39 -317h-74l82 667h74z" />
    <glyph glyph-name="uni04C4" unicode="&#x4c4;" horiz-adv-x="428" 
d="M119 415h72l-22 -174l190 174h88l-203 -186q66 -13 106 -59q39 -45 39 -114q0 -139 -108 -211q-63 -41 -145 -53l8 70q56 8 98 38q36 26 54.5 66.5t18.5 80.5q0 63 -39 95q-38 32 -103 32h-12l-21 -174h-72z" />
    <glyph glyph-name="uni04C7" unicode="&#x4c7;" horiz-adv-x="662" 
d="M86 0l82 667h74l-33 -271h342l33 271h74l-92 -731q-4 -34 -8 -54t-15 -44t-27 -39q-33 -29 -89 -29q-36 0 -67 11l8 70q23 -11 49 -11q29 0 48 17q22 21 29 81l48 388h-342l-40 -326h-74z" />
    <glyph glyph-name="uni04C8" unicode="&#x4c8;" horiz-adv-x="476" 
d="M68 0l51 415h72l-21 -170h196l21 170h72l-63 -503q-5 -43 -13 -67t-29 -43q-34 -32 -91 -32q-32 0 -58 9l9 70q25 -9 46 -9q30 0 44 16q14 15 20 60l34 263h-196l-22 -179h-72z" />
    <glyph glyph-name="uni04D0" unicode="&#x4d0;" horiz-adv-x="622" 
d="M534 0l-55 188h-284l-103 -188h-84l393 699l213 -699h-80zM233 258h226l-80 267zM252 818l71 23q5 -25 24 -40q20 -16 58 -16q37 0 60 16q23 15 28 40l67 -23q-16 -48 -62 -74q-41 -23 -95 -23q-68 0 -108 32q-32 26 -43 65z" />
    <glyph glyph-name="uni04D1" unicode="&#x4d1;" horiz-adv-x="528" 
d="M432 356l7 59h72l-51 -415h-72l7 58q-24 -33 -52 -49q-37 -21 -86 -21q-86 0 -135 51q-54 57 -54 148q0 116 72 184q57 54 149 54q51 0 88 -20q35 -18 55 -49zM295 361q-59 0 -100 -39q-53 -50 -53 -130q0 -69 43 -109q32 -31 84 -31q65 0 103 41q47 49 47 135
q0 64 -39 100q-35 33 -85 33zM168 594l60 23q8 -29 28 -44q20 -16 55 -16q33 0 55 15q23 17 32 45l60 -23q-21 -46 -54 -70q-38 -27 -93 -27q-58 0 -95 28q-35 28 -48 69z" />
    <glyph glyph-name="uni04D2" unicode="&#x4d2;" horiz-adv-x="622" 
d="M534 0l-55 188h-284l-103 -188h-84l393 699l213 -699h-80zM233 258h226l-80 267zM450 778q0 22 15 38q18 19 42 19q19 0 32 -12q13 -13 13 -31q0 -24 -16 -42q-17 -17 -40 -17q-21 0 -34 13q-12 12 -12 32zM260 778q0 22 15 38q18 19 42 19q19 0 32 -12q13 -13 13 -31
q0 -24 -16 -42q-17 -17 -40 -17q-21 0 -34 13q-12 12 -12 32z" />
    <glyph glyph-name="uni04D3" unicode="&#x4d3;" horiz-adv-x="528" 
d="M432 356l7 59h72l-51 -415h-72l7 58q-24 -33 -52 -49q-37 -21 -86 -21q-86 0 -135 51q-54 57 -54 148q0 116 72 184q57 54 149 54q51 0 88 -20q35 -18 55 -49zM295 361q-59 0 -100 -39q-53 -50 -53 -130q0 -69 43 -109q32 -31 84 -31q65 0 103 41q47 49 47 135
q0 64 -39 100q-35 33 -85 33zM344 543q0 23 17 40t40 17q18 0 31 -12.5t13 -31.5q0 -22 -18 -40q-16 -16 -38 -16q-18 0 -31.5 12t-13.5 31zM170 543q0 23 17 40t40 17q18 0 31 -12.5t13 -31.5q0 -22 -18 -40q-16 -16 -38 -16q-18 0 -31.5 12t-13.5 31z" />
    <glyph glyph-name="uni04D4" unicode="&#x4d4;" horiz-adv-x="900" 
d="M538 0l-56 187h-284l-102 -187h-82l379 667h293l20 -70h-269l59 -198h264l20 -70h-262l77 -259h271l20 -70h-348zM239 257h223l-78 261z" />
    <glyph glyph-name="uni04D5" unicode="&#x4d5;" horiz-adv-x="776" 
d="M415 348q26 34 66 55q44 22 97 22q85 0 132 -49q61 -63 47 -182h-327v-8q0 -64 37 -103q31 -31 82 -31t84 23q31 22 54 64l61 -33q-34 -57 -77 -86q-46 -32 -120 -32q-63 0 -103 24q-33 19 -58 59q-26 -42 -65 -62q-39 -21 -104 -21q-76 0 -116 29q-48 32 -48 95
q0 73 58 114q48 34 127 34q70 0 121 -35q8 82 -26 112q-26 24 -84 24q-57 0 -123 -26l8 68q63 22 128 22q60 0 99 -22q35 -20 50 -55zM240 196q-53 0 -83 -23q-27 -20 -27 -53q0 -32 27 -51q25 -17 75 -17q42 0 76 17q38 21 38 62q0 32 -30 49q-26 16 -76 16zM443 254h247
q-1 49 -35 81q-28 26 -78 26q-59 0 -94 -35q-29 -29 -40 -72z" />
    <glyph glyph-name="uni04D6" unicode="&#x4d6;" horiz-adv-x="482" 
d="M514 667l-9 -70h-272l-24 -198h264l-9 -70h-264l-31 -259h272l-9 -70h-346l82 667h346zM206 818l71 23q5 -25 24 -40q20 -16 58 -16q37 0 60 16q23 15 28 40l67 -23q-16 -48 -62 -74q-41 -23 -95 -23q-68 0 -108 32q-32 26 -43 65z" />
    <glyph glyph-name="uni04D7" unicode="&#x4d7;" horiz-adv-x="483" 
d="M395 139l61 -33q-34 -57 -77 -86q-49 -32 -120 -32q-87 0 -137 52q-55 57 -55 149q0 107 71 178q58 58 145 58q86 0 135 -49q61 -63 47 -183h-323q-1 -72 37 -110q31 -31 82 -31q47 0 80 23q31 22 54 64zM154 253h242q-2 50 -35 82q-27 26 -76 26q-56 0 -91 -35
q-29 -30 -40 -73zM158 594l60 23q8 -29 28 -44q20 -16 55 -16q33 0 55 15q23 17 32 45l60 -23q-21 -46 -54 -70q-38 -27 -93 -27q-58 0 -95 28q-35 28 -48 69z" />
    <glyph glyph-name="uni04D8" unicode="&#x4d8;" horiz-adv-x="759" 
d="M192 483l-62 35q55 75 123 114q81 46 180 46q143 0 231 -85q86 -84 86 -224q0 -174 -105 -283q-95 -98 -259 -98q-134 0 -210 76q-87 87 -87 225q0 23 3 46h580q10 61 -8 115.5t-57 91.5q-70 66 -177 66q-83 0 -146 -39q-49 -31 -92 -86zM657 265h-497q2 -45 20.5 -86
t46.5 -67q59 -54 163 -54q119 0 191 69q58 56 76 138z" />
    <glyph glyph-name="afii10846" unicode="&#x4d9;" horiz-adv-x="483" 
d="M138 274l-56 33q30 53 73 83q51 35 123 35q83 0 133 -46q56 -52 56 -144q0 -66 -23 -122t-64 -87q-50 -38 -136 -38q-84 0 -130 48q-63 66 -46 184h324q4 33 -6.5 63t-29.5 48q-32 30 -84 30q-50 0 -87 -30q-24 -19 -47 -57zM379 160h-244q2 -50 32 -80q28 -28 82 -28
q49 0 83 26q38 29 47 82z" />
    <glyph glyph-name="uni04DA" unicode="&#x4da;" horiz-adv-x="759" 
d="M192 483l-62 35q55 75 123 114q81 46 180 46q143 0 231 -85q86 -84 86 -224q0 -174 -105 -283q-95 -98 -259 -98q-134 0 -210 76q-87 87 -87 225q0 23 3 46h580q10 61 -8 115.5t-57 91.5q-70 66 -177 66q-83 0 -146 -39q-49 -31 -92 -86zM657 265h-497q2 -45 20.5 -86
t46.5 -67q59 -54 163 -54q119 0 191 69q58 56 76 138zM486 778q0 22 15 38q18 19 42 19q19 0 32 -12q13 -13 13 -31q0 -24 -16 -42q-17 -17 -40 -17q-21 0 -34 13q-12 12 -12 32zM296 778q0 22 15 38q18 19 42 19q19 0 32 -12q13 -13 13 -31q0 -24 -16 -42q-17 -17 -40 -17
q-21 0 -34 13q-12 12 -12 32z" />
    <glyph glyph-name="uni04DB" unicode="&#x4db;" horiz-adv-x="483" 
d="M138 274l-56 33q30 53 73 83q51 35 123 35q83 0 133 -46q56 -52 56 -144q0 -66 -23 -122t-64 -87q-50 -38 -136 -38q-84 0 -130 48q-63 66 -46 184h324q4 33 -6.5 63t-29.5 48q-32 30 -84 30q-50 0 -87 -30q-24 -19 -47 -57zM379 160h-244q2 -50 32 -80q28 -28 82 -28
q49 0 83 26q38 29 47 82zM328 543q0 23 17 40t40 17q18 0 31 -12.5t13 -31.5q0 -22 -18 -40q-16 -16 -38 -16q-18 0 -31.5 12t-13.5 31zM154 543q0 23 17 40t40 17q18 0 31 -12.5t13 -31.5q0 -22 -18 -40q-16 -16 -38 -16q-18 0 -31.5 12t-13.5 31z" />
    <glyph glyph-name="uni04DC" unicode="&#x4dc;" horiz-adv-x="810" 
d="M450 667h74l-35 -286l289 286h92l-320 -311l244 -356h-92l-207 305l-18 -18l-35 -287h-74l35 287l-14 18l-281 -305h-94l334 356l-242 311h90l219 -286zM545 778q0 22 15 38q18 19 42 19q18 0 32 -12q13 -13 13 -31q0 -24 -16 -42q-17 -17 -40 -17q-21 0 -34 13
q-12 12 -12 32zM355 778q0 22 15 38q18 19 42 19q18 0 32 -12q13 -13 13 -31q0 -24 -16 -42q-17 -17 -40 -17q-21 0 -34 13q-12 12 -12 32z" />
    <glyph glyph-name="uni04DD" unicode="&#x4dd;" horiz-adv-x="596" 
d="M313 415h72l-21 -170l177 170h84l-207 -196l170 -219h-86l-133 175l-15 -14l-20 -161h-72l20 161l-13 14l-175 -175h-90l227 224l-156 191h82l135 -170zM402 543q0 23 17 40t40 17q18 0 31 -12.5t13 -31.5q0 -22 -18 -40q-16 -16 -38 -16q-18 0 -31.5 12t-13.5 31z
M228 543q0 23 17 40t40 17q18 0 31 -12.5t13 -31.5q0 -22 -18 -40q-16 -16 -38 -16q-18 0 -31.5 12t-13.5 31z" />
    <glyph glyph-name="uni04DE" unicode="&#x4de;" horiz-adv-x="555" 
d="M202 536l-54 45q35 44 80 69q52 28 118 28q90 0 139 -50q40 -41 40 -103q0 -71 -35 -113q-27 -33 -76 -49q46 -9 75 -40q40 -40 40 -112q0 -96 -62 -158q-66 -65 -183 -65q-99 0 -158 46q-23 18 -41.5 46t-25.5 44t-9 24l71 32q15 -53 52 -86q42 -36 115 -36q76 0 120 42
t44 108q0 59 -43 89q-38 25 -112 25h-68l8 70h55q79 0 118 33q38 33 38 87q0 43 -31 70q-32 26 -82 26q-46 0 -80 -22q-28 -17 -53 -50zM402 778q0 22 15 38q18 19 42 19q19 0 32 -12q13 -13 13 -31q0 -24 -16 -42q-17 -17 -40 -17q-21 0 -34 13q-12 12 -12 32zM212 778
q0 22 15 38q18 19 42 19q19 0 32 -12q13 -13 13 -31q0 -24 -16 -42q-17 -17 -40 -17q-21 0 -34 13q-12 12 -12 32z" />
    <glyph glyph-name="uni04DF" unicode="&#x4df;" horiz-adv-x="404" 
d="M141 309l-45 41q26 32 59 52q39 23 93 23q61 0 96 -35q27 -29 27 -69q0 -36 -19 -61q-14 -19 -40 -30q27 -9 47 -34q19 -25 19 -58q0 -72 -53 -114q-45 -36 -128 -36q-67 0 -108 32q-15 12 -28 30t-18.5 29t-6.5 15l64 26q10 -30 32 -47q27 -21 70 -21q47 0 72 18
q30 21 30 60q0 30 -24 45q-21 13 -61 13h-42l8 66h35q49 0 69 19q14 14 14 36q0 21 -14 35q-17 17 -51 17t-59 -16q-21 -14 -38 -36zM281 543q0 23 17 40t40 17q18 0 31 -12.5t13 -31.5q0 -22 -18 -40q-16 -16 -38 -16q-18 0 -31.5 12t-13.5 31zM107 543q0 23 17 40t40 17
q18 0 31 -12.5t13 -31.5q0 -22 -18 -40q-16 -16 -38 -16q-18 0 -31.5 12t-13.5 31z" />
    <glyph glyph-name="uni04E2" unicode="&#x4e2;" horiz-adv-x="710" 
d="M550 0l62 509l-530 -539l86 697h74l-63 -511l530 539l-85 -695h-74zM295 733l8 64h320l-8 -64h-320z" />
    <glyph glyph-name="uni04E3" unicode="&#x4e3;" horiz-adv-x="492" 
d="M119 415h72l-34 -276l322 308l-55 -447h-72l34 279l-322 -308zM152 513l7 60h302l-7 -60h-302z" />
    <glyph glyph-name="uni04E4" unicode="&#x4e4;" horiz-adv-x="710" 
d="M550 0l62 509l-530 -539l86 697h74l-63 -511l530 539l-85 -695h-74zM505 778q0 22 15 38q18 19 42 19q18 0 32 -12q13 -13 13 -31q0 -24 -16 -42q-17 -17 -40 -17q-21 0 -34 13q-12 12 -12 32zM315 778q0 22 15 38q18 19 42 19q18 0 32 -12q13 -13 13 -31q0 -24 -16 -42
q-17 -17 -40 -17q-21 0 -34 13q-12 12 -12 32z" />
    <glyph glyph-name="uni04E5" unicode="&#x4e5;" horiz-adv-x="492" 
d="M119 415h72l-34 -276l322 308l-55 -447h-72l34 279l-322 -308zM350 543q0 23 17 40t40 17q18 0 31 -12.5t13 -31.5q0 -22 -18 -40q-16 -16 -38 -16q-18 0 -31.5 12t-13.5 31zM176 543q0 23 17 40t40 17q18 0 31 -12.5t13 -31.5q0 -22 -18 -40q-16 -16 -38 -16
q-18 0 -31.5 12t-13.5 31z" />
    <glyph glyph-name="uni04E6" unicode="&#x4e6;" horiz-adv-x="800" 
d="M399 -12q-138 0 -222 87q-86 88 -86 221q0 169 114 277q109 105 274 105q139 0 224 -84q88 -86 88 -218q0 -80 -28.5 -155t-83.5 -128q-109 -105 -280 -105zM471 608q-125 0 -211 -79q-92 -86 -92 -219q0 -113 69 -184q66 -68 170 -68q134 0 216 80q43 42 67 102.5
t24 121.5q0 108 -70 178q-68 68 -173 68zM523 778q0 22 15 38q18 19 42 19q18 0 32 -12q13 -13 13 -31q0 -24 -16 -42q-17 -17 -40 -17q-21 0 -34 13q-12 12 -12 32zM333 778q0 22 15 38q18 19 42 19q18 0 32 -12q13 -13 13 -31q0 -24 -16 -42q-17 -17 -40 -17q-21 0 -34 13
q-12 12 -12 32z" />
    <glyph glyph-name="uni04E7" unicode="&#x4e7;" horiz-adv-x="528" 
d="M268 -12q-94 0 -148 57q-53 57 -53 145q0 103 75 173q68 62 166 62q95 0 152 -57q51 -51 51 -136q0 -112 -70 -180q-65 -64 -173 -64zM307 361q-66 0 -113 -46q-53 -51 -53 -130q0 -56 36 -94q37 -39 96 -39q69 0 113 48q50 53 50 131q0 56 -34 92q-36 38 -95 38z
M366 543q0 23 17 40t40 17q18 0 31 -12.5t13 -31.5q0 -22 -18 -40q-16 -16 -38 -16q-18 0 -31.5 12t-13.5 31zM192 543q0 23 17 40t40 17q18 0 31 -12.5t13 -31.5q0 -22 -18 -40q-16 -16 -38 -16q-18 0 -31.5 12t-13.5 31z" />
    <glyph glyph-name="uni04E8" unicode="&#x4e8;" horiz-adv-x="800" 
d="M399 -12q-138 0 -222 87q-86 88 -86 221q0 169 114 277q109 105 274 105q139 0 224 -84q88 -86 88 -218q0 -80 -28.5 -155t-83.5 -128q-109 -105 -280 -105zM176 380h537q-6 96 -69 160q-68 68 -173 68q-127 0 -211 -79q-65 -61 -84 -149zM710 310h-542q-1 -110 69 -184
q66 -68 170 -68q134 0 216 80q70 68 87 172z" />
    <glyph glyph-name="uni04E9" unicode="&#x4e9;" horiz-adv-x="528" 
d="M268 -12q-94 0 -148 57q-53 57 -53 145q0 103 75 173q68 62 166 62q95 0 152 -57q51 -51 51 -136q0 -112 -70 -180q-65 -64 -173 -64zM150 244h285q-3 46 -33 79q-37 38 -97 38q-59 0 -103 -37q-39 -32 -52 -80zM429 180h-288q3 -54 36 -89q35 -39 98 -39q58 0 99 34
q41 35 55 94z" />
    <glyph glyph-name="uni04EA" unicode="&#x4ea;" horiz-adv-x="800" 
d="M399 -12q-138 0 -222 87q-86 88 -86 221q0 169 114 277q109 105 274 105q139 0 224 -84q88 -86 88 -218q0 -80 -28.5 -155t-83.5 -128q-109 -105 -280 -105zM176 380h537q-6 96 -69 160q-68 68 -173 68q-127 0 -211 -79q-65 -61 -84 -149zM710 310h-542q-1 -110 69 -184
q66 -68 170 -68q134 0 216 80q70 68 87 172zM523 778q0 22 15 38q18 19 42 19q18 0 32 -12q13 -13 13 -31q0 -24 -16 -42q-17 -17 -40 -17q-21 0 -34 13q-12 12 -12 32zM333 778q0 22 15 38q18 19 42 19q18 0 32 -12q13 -13 13 -31q0 -24 -16 -42q-17 -17 -40 -17
q-21 0 -34 13q-12 12 -12 32z" />
    <glyph glyph-name="uni04EB" unicode="&#x4eb;" horiz-adv-x="528" 
d="M268 -12q-94 0 -148 57q-53 57 -53 145q0 103 75 173q68 62 166 62q95 0 152 -57q51 -51 51 -136q0 -112 -70 -180q-65 -64 -173 -64zM150 244h285q-3 46 -33 79q-37 38 -97 38q-59 0 -103 -37q-39 -32 -52 -80zM429 180h-288q3 -54 36 -89q35 -39 98 -39q58 0 99 34
q41 35 55 94zM354 543q0 23 17 40t40 17q18 0 31 -12.5t13 -31.5q0 -22 -18 -40q-16 -16 -38 -16q-18 0 -31.5 12t-13.5 31zM180 543q0 23 17 40t40 17q18 0 31 -12.5t13 -31.5q0 -22 -18 -40q-16 -16 -38 -16q-18 0 -31.5 12t-13.5 31z" />
    <glyph glyph-name="uni04EE" unicode="&#x4ee;" horiz-adv-x="568" 
d="M90 667h85l160 -393l222 393h85l-383 -667h-80l108 186zM215 733l8 64h320l-8 -64h-320z" />
    <glyph glyph-name="uni04EF" unicode="&#x4ef;" horiz-adv-x="460" 
d="M39 -230l165 269l-145 376h80l110 -297l172 297h82l-384 -645h-80zM132 513l7 60h302l-7 -60h-302z" />
    <glyph glyph-name="uni04F0" unicode="&#x4f0;" horiz-adv-x="568" 
d="M90 667h85l160 -393l222 393h85l-383 -667h-80l108 186zM420 778q0 22 15 38q18 19 42 19q19 0 32 -12q13 -13 13 -31q0 -24 -16 -42q-17 -17 -40 -17q-21 0 -34 13q-12 12 -12 32zM230 778q0 22 15 38q18 19 42 19q19 0 32 -12q13 -13 13 -31q0 -24 -16 -42
q-17 -17 -40 -17q-21 0 -34 13q-12 12 -12 32z" />
    <glyph glyph-name="uni04F1" unicode="&#x4f1;" horiz-adv-x="460" 
d="M39 -230l165 269l-145 376h80l110 -297l172 297h82l-384 -645h-80zM334 543q0 23 17 40t40 17q18 0 31 -12.5t13 -31.5q0 -22 -18 -40q-16 -16 -38 -16q-18 0 -31.5 12t-13.5 31zM160 543q0 23 17 40t40 17q18 0 31 -12.5t13 -31.5q0 -22 -18 -40q-16 -16 -38 -16
q-18 0 -31.5 12t-13.5 31z" />
    <glyph glyph-name="uni04F2" unicode="&#x4f2;" horiz-adv-x="568" 
d="M90 667h85l160 -393l222 393h85l-383 -667h-80l108 186zM386 882l65 -40l-162 -122l-39 26zM536 882l65 -40l-162 -122l-39 26z" />
    <glyph glyph-name="uni04F3" unicode="&#x4f3;" horiz-adv-x="460" 
d="M39 -230l165 269l-145 376h80l110 -297l172 297h82l-384 -645h-80zM297 666l68 -32l-154 -136l-38 23zM431 666l66 -32l-152 -136l-38 23z" />
    <glyph glyph-name="uni04F4" unicode="&#x4f4;" horiz-adv-x="592" 
d="M432 0l36 292q-65 -13 -118 -13q-104 0 -159 32q-67 38 -67 117q0 25 6 72l20 167h74l-20 -162q-5 -43 -5 -59q0 -51 37 -75q33 -22 120 -22q62 0 120 11l38 307h74l-82 -667h-74zM430 778q0 22 15 38q18 19 42 19q19 0 32 -12q13 -13 13 -31q0 -24 -16 -42
q-17 -17 -40 -17q-21 0 -34 13q-12 12 -12 32zM240 778q0 22 15 38q18 19 42 19q18 0 32 -12q13 -13 13 -31q0 -24 -16 -42q-17 -17 -40 -17q-21 0 -34 13q-12 12 -12 32z" />
    <glyph glyph-name="uni04F5" unicode="&#x4f5;" horiz-adv-x="430" 
d="M290 0l20 166q-39 -12 -83 -12q-73 0 -109 31q-29 26 -29 73q0 16 6 61l12 96h72l-11 -92q-5 -37 -5 -50q0 -29 21 -41q19 -12 63 -12q43 0 71 11l23 184h72l-51 -415h-72zM314 543q0 23 17 40t40 17q18 0 31 -12.5t13 -31.5q0 -22 -18 -40q-16 -16 -38 -16
q-18 0 -31.5 12t-13.5 31zM140 543q0 23 17 40t40 17q18 0 31 -12.5t13 -31.5q0 -22 -18 -40q-16 -16 -38 -16q-18 0 -31.5 12t-13.5 31z" />
    <glyph glyph-name="uni04F8" unicode="&#x4f8;" horiz-adv-x="710" 
d="M632 667h74l-82 -667h-74zM86 0l81 667h75l-34 -277h74q125 0 180 -56q45 -45 45 -119q0 -100 -61 -157q-62 -58 -194 -58h-166zM199 320l-30 -250h86q93 0 133 34q42 35 42 102q0 65 -45 93q-30 21 -110 21h-76zM495 778q0 22 15 38q18 19 42 19q18 0 32 -12
q13 -13 13 -31q0 -24 -16 -42q-17 -17 -40 -17q-21 0 -34 13q-12 12 -12 32zM305 778q0 22 15 38q18 19 42 19q18 0 32 -12q13 -13 13 -31q0 -24 -16 -42q-17 -17 -40 -17q-21 0 -34 13q-12 12 -12 32z" />
    <glyph glyph-name="uni04F9" unicode="&#x4f9;" horiz-adv-x="562" 
d="M422 0l51 415h72l-51 -415h-72zM68 0l51 415h72l-20 -159h75q71 0 108 -32q35 -31 35 -85q0 -60 -36 -96q-42 -43 -126 -43h-86h-73zM148 64h75q45 0 68 17q24 19 24 51t-22 47q-18 13 -61 13h-68zM374 543q0 23 17 40t40 17q18 0 31 -12.5t13 -31.5q0 -22 -18 -40
q-16 -16 -38 -16q-18 0 -31.5 12t-13.5 31zM200 543q0 23 17 40t40 17q18 0 31 -12.5t13 -31.5q0 -22 -18 -40q-16 -16 -38 -16q-18 0 -31.5 12t-13.5 31z" />
    <glyph glyph-name="uni1E9E" unicode="&#x1e9e;" horiz-adv-x="589" 
d="M86 0l67 480q13 90 81 147q60 51 141 51q68 0 118 -34q66 -47 69 -124q0 -15 -1 -22l-160 -122q59 -12 100 -45q53 -44 53 -111q0 -115 -119 -186q-67 -40 -166 -46l10 70q69 4 123 34q77 44 77 120q-1 53 -50 86q-40 26 -112 31l8 60l160 128q-5 39 -37 66
q-30 25 -79 25q-57 0 -97 -40q-37 -37 -47 -102l-65 -466h-74z" />
    <glyph glyph-name="uni2010" unicode="&#x2010;" horiz-adv-x="320" 
d="M72 176l9 74h220l-9 -74h-220z" />
    <glyph glyph-name="uni2011" unicode="&#x2011;" horiz-adv-x="320" 
d="M72 176l9 74h220l-9 -74h-220z" />
    <glyph glyph-name="figuredash" unicode="&#x2012;" horiz-adv-x="580" 
d="M92 307l8 64h440l-8 -64h-440z" />
    <glyph glyph-name="endash" unicode="&#x2013;" horiz-adv-x="580" 
d="M92 181l8 64h440l-8 -64h-440z" />
    <glyph glyph-name="emdash" unicode="&#x2014;" horiz-adv-x="800" 
d="M92 181l8 64h660l-8 -64h-660z" />
    <glyph glyph-name="afii00208" unicode="&#x2015;" horiz-adv-x="800" 
d="M92 181l8 64h660l-8 -64h-660z" />
    <glyph glyph-name="quoteleft" unicode="&#x2018;" horiz-adv-x="264" 
d="M290 667l-112 -231l-62 24l129 226z" />
    <glyph glyph-name="quoteright" unicode="&#x2019;" horiz-adv-x="264" 
d="M116 460l109 231l64 -24l-129 -226z" />
    <glyph glyph-name="quotesinglbase" unicode="&#x201a;" horiz-adv-x="308" 
d="M42 -133l109 231l64 -24l-129 -226z" />
    <glyph glyph-name="quotedblleft" unicode="&#x201c;" horiz-adv-x="410" 
d="M290 667l-112 -231l-62 24l129 226zM436 667l-110 -231l-64 24l129 226z" />
    <glyph glyph-name="quotedblright" unicode="&#x201d;" horiz-adv-x="410" 
d="M116 460l109 231l64 -24l-129 -226zM262 460l111 231l62 -24l-129 -226z" />
    <glyph glyph-name="quotedblbase" unicode="&#x201e;" horiz-adv-x="454" 
d="M42 -133l109 231l64 -24l-129 -226zM188 -133l111 231l62 -24l-129 -226z" />
    <glyph glyph-name="dagger" unicode="&#x2020;" horiz-adv-x="569" 
d="M318 503l28 226h72l-28 -226h148l-9 -68h-148l-74 -605h-72l74 605h-148l9 68h148z" />
    <glyph glyph-name="daggerdbl" unicode="&#x2021;" horiz-adv-x="565" 
d="M314 503l28 226h72l-28 -226h148l-9 -68h-148l-34 -277h148l-8 -68h-148l-33 -266h-72l33 266h-148l8 68h148l34 277h-148l9 68h148z" />
    <glyph glyph-name="bullet" unicode="&#x2022;" horiz-adv-x="1000" 
d="M401 321q0 63 45 111q47 48 113 48q51 0 85 -31q39 -35 39 -93q0 -66 -44 -110q-46 -46 -115 -46q-51 0 -86 34q-37 36 -37 87z" />
    <glyph glyph-name="ellipsis" unicode="&#x2026;" horiz-adv-x="747" 
d="M328 35q0 23 16 39q15 16 39 16q20 0 33 -13t13 -34q0 -23 -19 -40q-16 -13 -36 -13q-21 0 -34 13q-12 12 -12 32zM80 35q0 23 16 39q15 16 39 16q20 0 33 -13t13 -34q0 -23 -19 -40q-16 -13 -36 -13q-21 0 -34 13q-12 12 -12 32zM576 35q0 23 16 39q15 16 39 16
q20 0 33 -13t13 -34q0 -23 -19 -40q-16 -13 -36 -13q-21 0 -34 13q-12 12 -12 32z" />
    <glyph glyph-name="perthousand" unicode="&#x2030;" horiz-adv-x="1062" 
d="M144 10l471 670l37 -22l-472 -671zM559 283q63 0 103 -40q36 -36 36 -93q0 -72 -45 -117q-41 -40 -110 -40q-61 0 -98 36q-40 39 -40 97q0 66 44 112q45 45 110 45zM549 48q36 0 60 24q28 28 28 74q0 39 -25 62q-20 20 -57 20q-40 0 -65 -28t-25 -69q0 -39 24 -61t60 -22
zM252 673q63 0 103 -40q36 -36 36 -93q0 -72 -45 -117q-41 -40 -110 -40q-61 0 -98 36q-40 40 -40 97q0 66 44 112q45 45 110 45zM242 438q36 0 60 24q28 28 28 74q0 39 -25 62q-20 20 -57 20q-40 0 -65 -28t-25 -69q0 -39 24 -61t60 -22zM907 283q63 0 103 -40
q36 -36 36 -93q0 -72 -45 -117q-41 -40 -110 -40q-61 0 -98 36q-40 39 -40 97q0 66 44 112q45 45 110 45zM897 48q36 0 60 24q28 28 28 74q0 39 -25 62q-20 20 -57 20q-40 0 -65 -28t-25 -69q0 -39 24 -61t60 -22z" />
    <glyph glyph-name="guilsinglleft" unicode="&#x2039;" horiz-adv-x="282" 
d="M138 208l102 -146l-50 -32l-128 182l173 188l42 -41z" />
    <glyph glyph-name="guilsinglright" unicode="&#x203a;" horiz-adv-x="282" 
d="M197 222l-102 146l50 32l128 -182l-173 -188l-42 41z" />
    <glyph glyph-name="fraction" unicode="&#x2044;" horiz-adv-x="206" 
d="M-150 10l470 670l36 -22l-471 -671z" />
    <glyph glyph-name="uni2080" unicode="&#x2080;" horiz-adv-x="350" 
d="M178 -7q-50 0 -83 34q-47 47 -47 132q0 52 18 109t54 94q42 44 102 44q47 0 80 -31q45 -43 45 -135q0 -139 -73 -208q-40 -39 -96 -39zM296 240q0 70 -30 100q-20 20 -48 20q-36 0 -63 -28t-41.5 -76t-14.5 -92q0 -73 35 -106q20 -19 46 -19q32 0 58 25q26 26 42 75
t16 101z" />
    <glyph glyph-name="uni2081" unicode="&#x2081;" horiz-adv-x="350" 
d="M166 0l43 354h-78l30 46h106l-49 -400h-52z" />
    <glyph glyph-name="uni2082" unicode="&#x2082;" horiz-adv-x="350" 
d="M297 0h-265l167 169q48 50 57 62q26 34 26 66q0 27 -18 45q-21 18 -54 18q-37 0 -58 -22q-21 -23 -23 -60h-50q5 57 43 94q37 34 93 34q54 0 87 -30q32 -29 32 -75q0 -47 -36 -92q-15 -19 -70 -74l-88 -89h163z" />
    <glyph glyph-name="uni2083" unicode="&#x2083;" horiz-adv-x="350" 
d="M51 109h50q0 -30 19 -51q18 -19 52 -19q36 0 57 21q23 25 23 64q0 31 -17 47t-54 16h-5l5 46h7q43 0 63 21q17 17 17 48q0 25 -14 41q-15 17 -46 17t-48 -17q-18 -18 -22 -47h-50q9 53 39 81q30 29 83 29q52 0 83 -28q28 -25 28 -72q0 -36 -18 -61q-17 -23 -45 -35
q21 -10 34 -30q13 -21 13 -51q0 -62 -37 -99q-36 -37 -100 -37q-49 0 -78 25q-37 33 -39 91z" />
    <glyph glyph-name="uni2084" unicode="&#x2084;" horiz-adv-x="350" 
d="M321 422l-38 -311h49l-6 -46h-49l-8 -65h-50l8 65h-205zM122 111h111l19 160z" />
    <glyph glyph-name="uni2085" unicode="&#x2085;" horiz-adv-x="350" 
d="M346 400l-6 -46h-134l-31 -81q68 8 112 -34q32 -31 32 -86q0 -74 -44 -120q-40 -40 -109 -40q-52 0 -89 24q-27 18 -47 48l43 30q14 -24 35 -39q26 -17 58 -17q45 0 71 28q28 31 28 80q0 40 -27 63q-24 19 -62 19q-41 0 -79 -28l82 199h167z" />
    <glyph glyph-name="uni2086" unicode="&#x2086;" horiz-adv-x="350" 
d="M253 413l38 -31l-102 -122q66 7 109 -33q36 -34 36 -89q0 -64 -40 -104q-40 -41 -108 -41q-69 0 -106 38q-32 34 -32 82q0 40 21 78q13 23 51 67zM184 39q44 0 69 24q28 27 28 73q0 38 -23 60q-24 22 -63 22t-65 -26q-30 -30 -30 -72q0 -33 21 -56q24 -25 63 -25z" />
    <glyph glyph-name="uni2087" unicode="&#x2087;" horiz-adv-x="350" 
d="M34 18l262 336h-210l6 46h300l-317 -410z" />
    <glyph glyph-name="uni2088" unicode="&#x2088;" horiz-adv-x="350" 
d="M134 208q-19 12 -28 30q-11 21 -11 45q0 55 33 88q35 35 88 35q52 0 81 -29q28 -27 28 -70q0 -39 -16 -64t-43 -37q20 -10 33 -30q17 -26 17 -57q0 -56 -36 -92q-35 -34 -97 -34q-56 0 -87 27q-36 32 -36 83q0 39 21 66q20 27 53 39zM206 229q33 0 50 19q20 20 20 53
q0 28 -18 44q-17 15 -45 15q-30 0 -50 -20q-19 -21 -19 -49q0 -27 15 -44q16 -18 47 -18zM192 185q-37 0 -59 -22q-21 -21 -21 -56q0 -29 19 -48q20 -20 53 -20q37 0 59 22q21 21 21 58q0 29 -18 47q-19 19 -54 19z" />
    <glyph glyph-name="uni2089" unicode="&#x2089;" horiz-adv-x="350" 
d="M143 -14l-38 31l104 120q-29 -5 -59.5 4t-52.5 30q-35 33 -35 86q0 63 42 107q41 42 107 42q67 0 103 -36q34 -34 34 -82q0 -40 -16 -72q-15 -28 -47 -65zM213 360q-43 0 -69 -25q-29 -28 -29 -74q0 -36 23 -58q22 -22 60 -22q44 0 69 27q29 29 29 73q0 40 -25 60
q-21 19 -58 19z" />
    <glyph glyph-name="Euro" unicode="&#x20ac;" horiz-adv-x="568" 
d="M584 622l-41 -67q-56 53 -141 53q-78 0 -140 -46.5t-88 -121.5h320l-34 -66h-304q-10 -43 -11 -78h280l-34 -66h-243q5 -71 51.5 -121.5t133.5 -50.5q99 0 192 77l-12 -92q-88 -55 -195 -55q-118 0 -183.5 70.5t-66.5 171.5h-68l34 66h33q3 35 11 78h-60l34 66h41
q32 101 115 169.5t206 68.5q95 0 170 -56z" />
    <glyph glyph-name="uni20B4" unicode="&#x20b4;" horiz-adv-x="568" 
d="M169 574q33 46 83 73q59 31 119 31q73 0 117 -46q35 -38 35 -90q0 -59 -48 -102h82l-7 -56h-124l-104 -88h217l-7 -56h-272q-23 -19 -41 -47.5t-18 -56.5q0 -37 29 -60q24 -18 62 -18q48 0 87 22q48 27 68 80l66 -28q-30 -76 -105 -117q-50 -27 -117 -27q-71 0 -116 34
q-52 40 -52 102q0 65 51 116h-79l7 56h130l104 88h-223l7 56h267q61 41 61 96q0 32 -22 51q-23 21 -64 21q-42 0 -80 -21q-34 -19 -58 -52z" />
    <glyph glyph-name="uni20B6" unicode="&#x20b6;" horiz-adv-x="568" 
d="M345 667q108 0 161 -51q46 -46 46 -126q0 -86 -54 -138q-61 -58 -189 -58h-57l-11 -88h164l-7 -56h-164l-18 -150h-74l18 150h-76l7 56h76l11 88h-75l7 66h76l38 307h121zM289 597l-29 -237h63q81 0 120 36q36 32 36 92q0 58 -37 85q-31 24 -98 24h-55z" />
    <glyph glyph-name="uni20B6" unicode="&#x20cf;" horiz-adv-x="568" 
d="M345 667q108 0 161 -51q46 -46 46 -126q0 -86 -54 -138q-61 -58 -189 -58h-57l-11 -88h164l-7 -56h-164l-18 -150h-74l18 150h-76l7 56h76l11 88h-75l7 66h76l38 307h121zM289 597l-29 -237h63q81 0 120 36q36 32 36 92q0 58 -37 85q-31 24 -98 24h-55z" />
    <glyph glyph-name="uni20B6" unicode="&#x20ce;" horiz-adv-x="568" 
d="M345 667q108 0 161 -51q46 -46 46 -126q0 -86 -54 -138q-61 -58 -189 -58h-57l-11 -88h164l-7 -56h-164l-18 -150h-74l18 150h-76l7 56h76l11 88h-75l7 66h76l38 307h121zM289 597l-29 -237h63q81 0 120 36q36 32 36 92q0 58 -37 85q-31 24 -98 24h-55z" />
    <glyph glyph-name="uni20B6" unicode="&#x20cd;" horiz-adv-x="568" 
d="M345 667q108 0 161 -51q46 -46 46 -126q0 -86 -54 -138q-61 -58 -189 -58h-57l-11 -88h164l-7 -56h-164l-18 -150h-74l18 150h-76l7 56h76l11 88h-75l7 66h76l38 307h121zM289 597l-29 -237h63q81 0 120 36q36 32 36 92q0 58 -37 85q-31 24 -98 24h-55z" />
    <glyph glyph-name="uni20B6" unicode="&#x20cc;" horiz-adv-x="568" 
d="M345 667q108 0 161 -51q46 -46 46 -126q0 -86 -54 -138q-61 -58 -189 -58h-57l-11 -88h164l-7 -56h-164l-18 -150h-74l18 150h-76l7 56h76l11 88h-75l7 66h76l38 307h121zM289 597l-29 -237h63q81 0 120 36q36 32 36 92q0 58 -37 85q-31 24 -98 24h-55z" />
    <glyph glyph-name="uni20B6" unicode="&#x20cb;" horiz-adv-x="568" 
d="M345 667q108 0 161 -51q46 -46 46 -126q0 -86 -54 -138q-61 -58 -189 -58h-57l-11 -88h164l-7 -56h-164l-18 -150h-74l18 150h-76l7 56h76l11 88h-75l7 66h76l38 307h121zM289 597l-29 -237h63q81 0 120 36q36 32 36 92q0 58 -37 85q-31 24 -98 24h-55z" />
    <glyph glyph-name="uni20B6" unicode="&#x20ca;" horiz-adv-x="568" 
d="M345 667q108 0 161 -51q46 -46 46 -126q0 -86 -54 -138q-61 -58 -189 -58h-57l-11 -88h164l-7 -56h-164l-18 -150h-74l18 150h-76l7 56h76l11 88h-75l7 66h76l38 307h121zM289 597l-29 -237h63q81 0 120 36q36 32 36 92q0 58 -37 85q-31 24 -98 24h-55z" />
    <glyph glyph-name="uni20B6" unicode="&#x20c9;" horiz-adv-x="568" 
d="M345 667q108 0 161 -51q46 -46 46 -126q0 -86 -54 -138q-61 -58 -189 -58h-57l-11 -88h164l-7 -56h-164l-18 -150h-74l18 150h-76l7 56h76l11 88h-75l7 66h76l38 307h121zM289 597l-29 -237h63q81 0 120 36q36 32 36 92q0 58 -37 85q-31 24 -98 24h-55z" />
    <glyph glyph-name="uni20B6" unicode="&#x20c8;" horiz-adv-x="568" 
d="M345 667q108 0 161 -51q46 -46 46 -126q0 -86 -54 -138q-61 -58 -189 -58h-57l-11 -88h164l-7 -56h-164l-18 -150h-74l18 150h-76l7 56h76l11 88h-75l7 66h76l38 307h121zM289 597l-29 -237h63q81 0 120 36q36 32 36 92q0 58 -37 85q-31 24 -98 24h-55z" />
    <glyph glyph-name="uni20B6" unicode="&#x20c7;" horiz-adv-x="568" 
d="M345 667q108 0 161 -51q46 -46 46 -126q0 -86 -54 -138q-61 -58 -189 -58h-57l-11 -88h164l-7 -56h-164l-18 -150h-74l18 150h-76l7 56h76l11 88h-75l7 66h76l38 307h121zM289 597l-29 -237h63q81 0 120 36q36 32 36 92q0 58 -37 85q-31 24 -98 24h-55z" />
    <glyph glyph-name="uni20B6" unicode="&#x20c6;" horiz-adv-x="568" 
d="M345 667q108 0 161 -51q46 -46 46 -126q0 -86 -54 -138q-61 -58 -189 -58h-57l-11 -88h164l-7 -56h-164l-18 -150h-74l18 150h-76l7 56h76l11 88h-75l7 66h76l38 307h121zM289 597l-29 -237h63q81 0 120 36q36 32 36 92q0 58 -37 85q-31 24 -98 24h-55z" />
    <glyph glyph-name="uni20B6" unicode="&#x20c5;" horiz-adv-x="568" 
d="M345 667q108 0 161 -51q46 -46 46 -126q0 -86 -54 -138q-61 -58 -189 -58h-57l-11 -88h164l-7 -56h-164l-18 -150h-74l18 150h-76l7 56h76l11 88h-75l7 66h76l38 307h121zM289 597l-29 -237h63q81 0 120 36q36 32 36 92q0 58 -37 85q-31 24 -98 24h-55z" />
    <glyph glyph-name="uni20B6" unicode="&#x20c4;" horiz-adv-x="568" 
d="M345 667q108 0 161 -51q46 -46 46 -126q0 -86 -54 -138q-61 -58 -189 -58h-57l-11 -88h164l-7 -56h-164l-18 -150h-74l18 150h-76l7 56h76l11 88h-75l7 66h76l38 307h121zM289 597l-29 -237h63q81 0 120 36q36 32 36 92q0 58 -37 85q-31 24 -98 24h-55z" />
    <glyph glyph-name="uni20B6" unicode="&#x20c3;" horiz-adv-x="568" 
d="M345 667q108 0 161 -51q46 -46 46 -126q0 -86 -54 -138q-61 -58 -189 -58h-57l-11 -88h164l-7 -56h-164l-18 -150h-74l18 150h-76l7 56h76l11 88h-75l7 66h76l38 307h121zM289 597l-29 -237h63q81 0 120 36q36 32 36 92q0 58 -37 85q-31 24 -98 24h-55z" />
    <glyph glyph-name="uni20B6" unicode="&#x20c2;" horiz-adv-x="568" 
d="M345 667q108 0 161 -51q46 -46 46 -126q0 -86 -54 -138q-61 -58 -189 -58h-57l-11 -88h164l-7 -56h-164l-18 -150h-74l18 150h-76l7 56h76l11 88h-75l7 66h76l38 307h121zM289 597l-29 -237h63q81 0 120 36q36 32 36 92q0 58 -37 85q-31 24 -98 24h-55z" />
    <glyph glyph-name="uni20B6" unicode="&#x20c1;" horiz-adv-x="568" 
d="M345 667q108 0 161 -51q46 -46 46 -126q0 -86 -54 -138q-61 -58 -189 -58h-57l-11 -88h164l-7 -56h-164l-18 -150h-74l18 150h-76l7 56h76l11 88h-75l7 66h76l38 307h121zM289 597l-29 -237h63q81 0 120 36q36 32 36 92q0 58 -37 85q-31 24 -98 24h-55z" />
    <glyph glyph-name="uni20B6" unicode="&#x20c0;" horiz-adv-x="568" 
d="M345 667q108 0 161 -51q46 -46 46 -126q0 -86 -54 -138q-61 -58 -189 -58h-57l-11 -88h164l-7 -56h-164l-18 -150h-74l18 150h-76l7 56h76l11 88h-75l7 66h76l38 307h121zM289 597l-29 -237h63q81 0 120 36q36 32 36 92q0 58 -37 85q-31 24 -98 24h-55z" />
    <glyph glyph-name="uni20B6" unicode="&#x20bf;" horiz-adv-x="568" 
d="M345 667q108 0 161 -51q46 -46 46 -126q0 -86 -54 -138q-61 -58 -189 -58h-57l-11 -88h164l-7 -56h-164l-18 -150h-74l18 150h-76l7 56h76l11 88h-75l7 66h76l38 307h121zM289 597l-29 -237h63q81 0 120 36q36 32 36 92q0 58 -37 85q-31 24 -98 24h-55z" />
    <glyph glyph-name="uni20B6" unicode="&#x20be;" horiz-adv-x="568" 
d="M345 667q108 0 161 -51q46 -46 46 -126q0 -86 -54 -138q-61 -58 -189 -58h-57l-11 -88h164l-7 -56h-164l-18 -150h-74l18 150h-76l7 56h76l11 88h-75l7 66h76l38 307h121zM289 597l-29 -237h63q81 0 120 36q36 32 36 92q0 58 -37 85q-31 24 -98 24h-55z" />
    <glyph glyph-name="uni20B6" unicode="&#x20bd;" horiz-adv-x="568" 
d="M345 667q108 0 161 -51q46 -46 46 -126q0 -86 -54 -138q-61 -58 -189 -58h-57l-11 -88h164l-7 -56h-164l-18 -150h-74l18 150h-76l7 56h76l11 88h-75l7 66h76l38 307h121zM289 597l-29 -237h63q81 0 120 36q36 32 36 92q0 58 -37 85q-31 24 -98 24h-55z" />
    <glyph glyph-name="uni20B6" unicode="&#x20bc;" horiz-adv-x="568" 
d="M345 667q108 0 161 -51q46 -46 46 -126q0 -86 -54 -138q-61 -58 -189 -58h-57l-11 -88h164l-7 -56h-164l-18 -150h-74l18 150h-76l7 56h76l11 88h-75l7 66h76l38 307h121zM289 597l-29 -237h63q81 0 120 36q36 32 36 92q0 58 -37 85q-31 24 -98 24h-55z" />
    <glyph glyph-name="uni20B6" unicode="&#x20bb;" horiz-adv-x="568" 
d="M345 667q108 0 161 -51q46 -46 46 -126q0 -86 -54 -138q-61 -58 -189 -58h-57l-11 -88h164l-7 -56h-164l-18 -150h-74l18 150h-76l7 56h76l11 88h-75l7 66h76l38 307h121zM289 597l-29 -237h63q81 0 120 36q36 32 36 92q0 58 -37 85q-31 24 -98 24h-55z" />
    <glyph glyph-name="uni20B6" unicode="&#x20ba;" horiz-adv-x="568" 
d="M345 667q108 0 161 -51q46 -46 46 -126q0 -86 -54 -138q-61 -58 -189 -58h-57l-11 -88h164l-7 -56h-164l-18 -150h-74l18 150h-76l7 56h76l11 88h-75l7 66h76l38 307h121zM289 597l-29 -237h63q81 0 120 36q36 32 36 92q0 58 -37 85q-31 24 -98 24h-55z" />
    <glyph glyph-name="uni20B6" unicode="&#x20b9;" horiz-adv-x="568" 
d="M345 667q108 0 161 -51q46 -46 46 -126q0 -86 -54 -138q-61 -58 -189 -58h-57l-11 -88h164l-7 -56h-164l-18 -150h-74l18 150h-76l7 56h76l11 88h-75l7 66h76l38 307h121zM289 597l-29 -237h63q81 0 120 36q36 32 36 92q0 58 -37 85q-31 24 -98 24h-55z" />
    <glyph glyph-name="uni20B6" unicode="&#x20b7;" horiz-adv-x="568" 
d="M345 667q108 0 161 -51q46 -46 46 -126q0 -86 -54 -138q-61 -58 -189 -58h-57l-11 -88h164l-7 -56h-164l-18 -150h-74l18 150h-76l7 56h76l11 88h-75l7 66h76l38 307h121zM289 597l-29 -237h63q81 0 120 36q36 32 36 92q0 58 -37 85q-31 24 -98 24h-55z" />
    <glyph glyph-name="uni20B8" unicode="&#x20b8;" horiz-adv-x="568" 
d="M543 487h-162l-60 -487h-74l60 487h-162l9 70h398zM557 607h-398l8 60h398z" />
    <glyph glyph-name="afii61352" unicode="&#x2116;" horiz-adv-x="1021" 
d="M160 0h-74l85 695l401 -529l62 501h74l-86 -697l-401 529zM922 667q60 0 97 -37q36 -36 36 -95q0 -69 -42 -113q-43 -45 -118 -45q-60 0 -96 36t-36 93q0 71 43 115q44 46 116 46zM900 432q39 0 67 26q28 28 28 74q0 41 -25 62q-21 18 -54 18q-39 0 -63 -24
q-30 -28 -30 -75q0 -38 22 -60q21 -21 55 -21zM748 227l8 70h250l-8 -70h-250z" />
    <glyph glyph-name="uni2117" unicode="&#x2117;" horiz-adv-x="740" 
d="M304 519h74q80 0 110 -31q28 -28 28 -77t-28 -77q-31 -31 -99 -31h-31v-158h-54v374zM358 471v-120h22q47 0 65 17q17 15 17 44q0 26 -13 40q-17 19 -71 19h-20zM756 332q0 -138 -94 -238q-101 -107 -251 -107t-251 107q-94 100 -94 238q0 137 94 237q101 107 251 107
t251 -107q94 -100 94 -237zM411 620q-54 0 -109 -22t-94 -60q-41 -40 -63.5 -95t-22.5 -111q0 -57 22.5 -112t63.5 -95q39 -38 94 -60t109 -22t109 22t94 60q41 40 63.5 95t22.5 112q0 56 -22.5 111t-63.5 95q-39 38 -94 60t-109 22z" />
    <glyph glyph-name="trademark" unicode="&#x2122;" horiz-adv-x="722" 
d="M310 621h-90l-41 -334h-50l41 334h-90l6 46h230zM351 287h-46l115 404l104 -315l186 315l11 -404h-46l-3 257l-161 -276l-91 276z" />
    <glyph glyph-name="partialdiff" unicode="&#x2202;" horiz-adv-x="515" 
d="M109 604l17 69q129 -14 219 -77q83 -57 124 -145q39 -83 39 -197q0 -136 -70 -207q-59 -59 -149 -59q-99 0 -160 65q-61 64 -61 159q0 100 65 165q60 60 147 60q85 0 136 -48q-28 98 -123 157q-78 51 -184 58zM434 218q0 78 -50 122q-38 33 -93 33q-67 0 -108 -45
t-41 -117q0 -74 48 -120q42 -39 100 -39q54 0 94 38q50 48 50 128z" />
    <glyph glyph-name="product" unicode="&#x220f;" horiz-adv-x="726" 
d="M90 684v66h626v-66h-78v-868h78v-66h-234v66h82v868h-322v-868h81v-66h-233v66h78v868h-78z" />
    <glyph glyph-name="summation" unicode="&#x2211;" horiz-adv-x="682" 
d="M90 750h574v-215h-74v149h-402l238 -413l-242 -455h414v147h74v-213h-582v46l252 476l-252 432v46z" />
    <glyph glyph-name="minus" unicode="&#x2212;" 
d="M74 300v66h434v-66h-434z" />
    <glyph glyph-name="uni2215" unicode="&#x2215;" horiz-adv-x="605" 
d="M-19 -170l632 929l60 -30l-631 -927z" />
    <glyph glyph-name="uni2219" unicode="&#x2219;" horiz-adv-x="200" 
d="M78 333q0 29 22 51q19 20 47 20t44 -18q15 -15 15 -38q0 -30 -20 -50q-22 -22 -51 -22q-24 0 -39 14q-18 18 -18 43z" />
    <glyph glyph-name="radical" unicode="&#x221a;" horiz-adv-x="603" 
d="M446 827h259v-66h-199l-215 -761h-89l-82 300h-83v66h141l70 -268h2z" />
    <glyph glyph-name="infinity" unicode="&#x221e;" horiz-adv-x="668" 
d="M378 292q-29 -42 -60 -67q-48 -38 -107 -38q-62 0 -106 42q-44 43 -44 111q0 67 43 110t111 43q56 0 99 -35q29 -23 60 -70q29 42 60 67q48 38 107 38q62 0 106 -42q44 -43 44 -111q0 -67 -43 -110t-111 -43q-54 0 -97 35q-37 30 -62 70zM531 429q-36 0 -68 -27
q-28 -25 -51 -62q19 -34 48 -59q33 -30 71 -30q36 0 62 26q24 24 24 63q0 41 -25 65q-26 24 -61 24zM221 429q-35 0 -61 -24q-25 -24 -25 -65q0 -39 24 -63q26 -26 62 -26q38 0 71 30q29 25 48 59q-23 37 -51 62q-32 27 -68 27z" />
    <glyph glyph-name="integral" unicode="&#x222b;" horiz-adv-x="380" 
d="M375 739l-16 -64q-21 11 -47 11q-27 0 -40 -15q-14 -15 -14 -87v-683q0 -85 -32 -118q-33 -33 -94 -33q-33 0 -65 11l16 64q22 -11 43 -11q29 0 44 15q14 15 14 87v668q0 32 0.5 47.5t7 39.5t19.5 40q33 39 97 39q34 0 67 -11z" />
    <glyph glyph-name="approxequal" unicode="&#x2248;" 
d="M487 488l44 -26q-19 -44 -50 -73q-39 -39 -96 -39q-34 0 -108 34q-69 32 -95 32q-29 0 -52 -20q-19 -16 -35 -52l-44 26q23 49 48 78q34 38 87 38q42 0 113 -34q69 -32 95 -32q37 0 61 24q19 17 32 44zM487 322l44 -26q-19 -44 -50 -73q-39 -39 -96 -39q-34 0 -108 34
q-69 32 -95 32q-29 0 -52 -20q-19 -16 -35 -52l-44 26q23 49 48 78q34 38 87 38q42 0 113 -34q69 -32 95 -32q37 0 61 24q19 17 32 44z" />
    <glyph glyph-name="notequal" unicode="&#x2260;" 
d="M75 384v66h240l55 114h59l-54 -114h134v-66h-166l-42 -88h208v-66h-240l-54 -114h-60l55 114h-135v66h166l43 88h-209z" />
    <glyph glyph-name="lessequal" unicode="&#x2264;" 
d="M151 377l357 -159v-68l-434 196v62l434 196v-68zM508 55h-434v66h434v-66z" />
    <glyph glyph-name="greaterequal" unicode="&#x2265;" 
d="M419 377l-357 159v68l434 -196v-62l-434 -196v68zM496 55h-434v66h434v-66z" />
    <glyph glyph-name="dotmath" unicode="&#x22c5;" horiz-adv-x="200" 
d="M78 333q0 29 22 51q19 20 47 20t44 -18q15 -15 15 -38q0 -30 -20 -50q-22 -22 -51 -22q-24 0 -39 14q-18 18 -18 43z" />
    <glyph glyph-name="lozenge" unicode="&#x25ca;" horiz-adv-x="680" 
d="M115 334l260 360l260 -360l-260 -360zM551 334l-176 243l-176 -243l176 -243z" />
    <glyph glyph-name="openbullet" unicode="&#x25e6;" horiz-adv-x="495" 
d="M173 520q0 64 43 109q39 40 101 40q64 0 99 -35q35 -34 35 -93q0 -70 -42 -110q-39 -38 -105 -38q-65 0 -100 39q-31 35 -31 88zM223 522q0 -38 22 -60q20 -23 61 -23q40 0 65 25q30 28 30 76q0 37 -25 62q-25 21 -60 21q-39 0 -65 -26q-28 -30 -28 -75z" />
    <glyph glyph-name="uniF400" unicode="&#xf400;" horiz-adv-x="2" 
d="M-128 666l70 -34l-151 -135l-42 24z" />
    <glyph glyph-name="uniF401" unicode="&#xf401;" horiz-adv-x="2" 
d="M-163 882l65 -45l-168 -117l-39 32z" />
    <glyph glyph-name="uniF406" unicode="&#xf406;" 
d="M440 841h68q-13 -56 -56 -87q-43 -33 -109 -33q-68 0 -107 39q-33 33 -38 81h64q7 -26 27 -41t57 -15t59 14q23 13 35 42z" />
    <glyph glyph-name="uniF407" unicode="&#xf407;" 
d="M258 -52l66 -30l-120 -128l-47 26z" />
    <glyph glyph-name="uniF408" unicode="&#xf408;" 
d="M352 797l-97 -76l-51 41l154 119l126 -119l-53 -41z" />
    <glyph glyph-name="uniF409" unicode="&#xf409;" 
d="M181 -206l76 156l64 -30l-92 -150z" />
    <glyph glyph-name="uniF40A" unicode="&#xf40a;" 
d="M220 522l76 158l64 -30l-94 -150z" />
    <glyph glyph-name="uniF40B" unicode="&#xf40b;" 
d="M290 776q0 29 20 47q17 16 41 16q21 0 37 -14q13 -12 13 -35q0 -26 -16 -43q-17 -18 -43 -18t-39 13t-13 34z" />
    <glyph glyph-name="uniF40C" unicode="&#xf40c;" 
d="M261 809q0 42 29 71q26 26 67 26q37 0 61 -24q21 -24 21 -58q0 -41 -28 -69q-27 -25 -68 -25q-36 0 -58 21q-24 24 -24 58zM309 814q0 -16 10 -26q11 -11 28 -11q19 0 32 12q14 12 14 33q0 19 -12 29q-10 10 -28 10q-19 0 -31 -12q-13 -13 -13 -35z" />
    <glyph glyph-name="uniF40D" unicode="&#xf40d;" 
d="M465 842l39 -35q-11 -23 -35 -44q-34 -28 -68 -28q-26 0 -54 15l-21 12q-26 15 -44 15q-19 0 -32 -14q-12 -12 -21 -30l-40 36q20 32 40 48q28 24 64 24q27 0 57 -17l25 -14q19 -11 35 -11q19 0 34 14q13 13 21 29z" />
    <glyph glyph-name="uniF40E" unicode="&#xf40e;" 
d="M352 -117l-16 -59q-26 -14 -60 -14q-43 0 -68 25q-20 20 -20 49q0 42 33 77q23 24 53 39h62q-32 -19 -52 -39q-29 -29 -29 -57q0 -18 14 -27q10 -7 33 -7q25 0 50 13z" />
    <glyph glyph-name="uniF4C6" unicode="&#xf4c6;" horiz-adv-x="569" 
d="M588 667l-92 -754q-10 -80 -41 -111q-32 -32 -94 -32q-37 0 -68 11l8 70q22 -11 49 -11q31 0 48 17q20 19 26 75l44 359q-61 -13 -120 -13q-102 0 -157 32q-67 39 -67 117q0 17 6 72l20 168h74l-20 -162q-5 -40 -5 -56q0 -53 39 -78q34 -23 128 -23q57 0 110 12l38 307
h74z" />
    <glyph glyph-name="uniF4C7" unicode="&#xf4c7;" horiz-adv-x="430" 
d="M341 415h72l-62 -503q-5 -43 -13 -67t-29 -43q-34 -32 -91 -32q-32 0 -58 9l9 70q25 -9 46 -9q30 0 44 16q14 15 20 60l31 250q-39 -12 -83 -12q-73 0 -109 31q-29 26 -29 73q0 16 6 61l12 96h72l-11 -92q-5 -37 -5 -50q0 -29 21 -41q19 -12 63 -12q43 0 71 11z" />
    <glyph glyph-name="uniF4CC" unicode="&#xf4cc;" horiz-adv-x="568" 
d="M90 667h85l160 -393l222 393h85l-383 -667h-80l108 186zM474 882l65 -45l-168 -117l-39 32z" />
    <glyph glyph-name="uniF4CD" unicode="&#xf4cd;" horiz-adv-x="460" 
d="M39 -230l165 269l-145 376h80l110 -297l172 297h82l-384 -645h-80zM374 666l70 -34l-151 -135l-42 24z" />
    <glyph glyph-name="dollar.fitted" unicode="&#xf5f5;" horiz-adv-x="470" 
d="M484 574l-63 -39q-5 30 -27 48q-18 16 -44 20l-27 -221q61 -23 98 -65q43 -49 43 -118q0 -89 -56 -147q-52 -55 -133 -62l-11 -91h-60l11 90q-69 0 -118 49t-56 122l74 20q5 -54 36 -87q27 -29 73 -34l33 271l-25 12q-54 26 -79 52q-38 39 -38 102q0 75 52 127
q54 54 133 54l10 86h60l-11 -88q43 -7 78 -35q33 -26 47 -66zM313 302l-29 -241q43 8 71 41q31 36 31 92q0 43 -25 72q-19 24 -48 36zM267 409l24 198q-40 -1 -68 -27q-33 -31 -33 -76q0 -36 24 -62q20 -21 53 -33z" />
    <glyph glyph-name="Euro.fitted" unicode="&#xf5f6;" horiz-adv-x="627" 
d="M673 622l-41 -67q-56 53 -141 53q-79 0 -140.5 -46.5t-87.5 -121.5h320l-34 -66h-304q-10 -43 -11 -78h280l-34 -66h-243q5 -71 51.5 -121.5t133.5 -50.5q99 0 192 77l-12 -92q-88 -55 -195 -55q-118 0 -183.5 70.5t-66.5 171.5h-68l34 66h33q3 35 11 78h-60l34 66h41
q32 101 115 169.5t206 68.5q95 0 170 -56z" />
    <glyph glyph-name="cent.fitted" unicode="&#xf5f7;" horiz-adv-x="401" 
d="M419 518l-10 -86q-18 24 -46 42q-24 15 -53 17l-37 -305q30 1 62 18q33 18 54 46l-10 -86q-52 -39 -114 -42l-13 -108h-60l13 110q-64 8 -106 52q-55 57 -55 145q0 48 19 94.5t53 79.5q57 57 143 62l12 98h60l-13 -100q54 -5 101 -37zM213 190l38 302q-54 -7 -92 -51
q-41 -48 -41 -115q0 -56 26 -90q24 -33 69 -46z" />
    <glyph glyph-name="sterling.fitted" unicode="&#xf5f8;" horiz-adv-x="542" 
d="M547 459h-73q3 16 3 32q0 54 -28 83q-31 33 -86 33q-60 0 -94 -36q-32 -32 -32 -88q0 -45 28 -119l19 -50h126l-7 -56h-107q7 -26 7 -50q0 -54 -34 -105l56 -23q49 -20 72 -20q30 0 53 23q21 19 35 46l56 -36q-27 -49 -61 -75q-35 -28 -86 -28q-40 0 -81 17l-29 12
q-55 23 -87 23q-28 0 -53 -20q-17 -14 -33 -34l-52 39q27 35 58 58q37 26 78 27q33 46 33 93q0 30 -9 53h-112l7 56h87l-13 37q-29 83 -29 126q0 82 55 140q57 60 151 60q84 0 135 -47q51 -46 51 -129q0 -23 -4 -42z" />
    <glyph glyph-name="yen.fitted" unicode="&#xf5f9;" horiz-adv-x="602" 
d="M557 384h-141l-62 -88h192l-7 -56h-198l-29 -240h-74l29 240h-195l7 56h189l-40 88h-138l7 56h106l-103 227h85l133 -298l209 298h89l-161 -227h109z" />
    <glyph glyph-name="florin.fitted" unicode="&#xf5fa;" horiz-adv-x="385" 
d="M382 355h-108l-85 -329q-28 -108 -73 -149q-52 -47 -142 -47q-18 0 -42 4l19 64q14 -2 24 -2q61 0 92 29q32 31 57 128l77 302h-72l13 60h74l46 179q20 78 57 113q35 33 95 33q33 0 63 -10l-18 -67q-24 11 -45 11q-28 0 -45 -16q-22 -20 -38 -84l-42 -159h106z" />
    <glyph glyph-name="uni20B4.fitted" unicode="&#xf5fb;" horiz-adv-x="499" 
d="M92 574q33 46 83 73q59 31 119 31q73 0 117 -46q35 -38 35 -90q0 -59 -48 -102h82l-7 -56h-124l-104 -88h217l-7 -56h-272q-23 -19 -41 -47.5t-18 -56.5q0 -37 29 -60q24 -18 62 -18q48 0 87 22q48 27 68 80l66 -28q-30 -76 -105 -117q-50 -27 -117 -27q-71 0 -116 34
q-52 40 -52 102q0 65 51 116h-79l7 56h130l104 88h-223l7 56h267q61 41 61 96q0 32 -22 51q-23 21 -64 21q-42 0 -80 -21q-34 -19 -58 -52z" />
    <glyph glyph-name="uni20B6.fitted" unicode="&#xf5fc;" horiz-adv-x="491" 
d="M276 667q108 0 161 -51q46 -46 46 -126q0 -86 -54 -138q-61 -58 -189 -58h-57l-11 -88h164l-7 -56h-164l-18 -150h-74l18 150h-76l7 56h76l11 88h-75l7 66h76l38 307h121zM220 597l-29 -237h63q81 0 120 36q36 32 36 92q0 58 -37 85q-31 24 -98 24h-55z" />
    <glyph glyph-name="uni20B8.fitted" unicode="&#xf5fd;" horiz-adv-x="431" 
d="M407 487h-162l-60 -487h-74l60 487h-162l9 70h398zM421 607h-398l8 60h398z" />
    <glyph glyph-name="uniF639" unicode="&#xf639;" horiz-adv-x="534" 
d="M260 -12q-76 0 -126 51q-76 78 -76 225q0 102 33 195.5t91 151.5q66 67 156 67q76 0 128 -49q76 -72 76 -223q0 -106 -30 -201.5t-92 -155.5q-36 -34 -73 -47.5t-87 -13.5zM333 610q-58 0 -104 -46q-45 -45 -71 -125.5t-26 -163.5q0 -127 56 -185q33 -34 82 -34
q55 0 96 38q49 45 75.5 132t26.5 170q0 52 -13.5 103.5t-42.5 79.5q-31 31 -79 31z" />
    <glyph glyph-name="uniF63A" unicode="&#xf63a;" horiz-adv-x="530" 
d="M468 0h-431l278 279q76 76 100 109q40 55 40 109q0 51 -33 82t-89 31q-65 0 -100 -37q-37 -37 -42 -101h-74q12 92 69 148q60 58 153 58q86 0 139 -50q51 -48 51 -123q0 -82 -60 -159q-12 -15 -27.5 -32t-27 -28.5t-32 -31.5t-29.5 -29l-159 -157h282z" />
    <glyph glyph-name="uniF63B" unicode="&#xf63b;" horiz-adv-x="482" 
d="M179 502h-74q11 75 58 124q51 52 135 52q81 0 129 -44q49 -45 49 -126q0 -57 -28 -98q-31 -44 -77 -60q35 -18 55 -49q24 -37 24 -89q0 -100 -64 -165q-58 -59 -152 -59q-90 0 -139 50q-51 53 -56 135h74q3 -55 36 -88q30 -29 85 -29q62 0 98 36q42 42 42 116
q0 47 -31 78q-33 31 -88 31h-8l8 66h10q65 0 100 29q38 31 38 96q0 47 -28 74q-29 28 -80 28q-49 0 -81 -30q-30 -30 -35 -78z" />
    <glyph glyph-name="uniF63C" unicode="&#xf63c;" horiz-adv-x="533" 
d="M510 704l-62 -510h82l-9 -68h-82l-15 -126h-74l15 126h-342zM166 194h207l36 288z" />
    <glyph glyph-name="uniF63D" unicode="&#xf63d;" horiz-adv-x="546" 
d="M538 667l-8 -68h-214l-60 -145q107 17 176 -50q59 -57 59 -153q0 -117 -73 -192q-70 -71 -183 -71q-79 0 -132 35q-47 31 -79 85l64 42q19 -38 49 -62q41 -32 99 -32q84 0 131 49q50 52 50 143q0 68 -47 108q-41 35 -107 35q-68 0 -125 -41l135 317h265z" />
    <glyph glyph-name="uniF63E" unicode="&#xf63e;" horiz-adv-x="502" 
d="M383 683l55 -42l-173 -207q52 8 104 -7t88 -52q53 -54 53 -142q0 -108 -67 -175q-70 -70 -188 -70q-93 0 -149 53q-61 58 -61 150q0 68 35 129q23 40 75 99zM264 56q78 0 122 44q48 48 48 131q0 62 -39 99q-42 39 -110 39q-65 0 -114 -47q-51 -49 -51 -126q0 -58 38 -98
q39 -42 106 -42z" />
    <glyph glyph-name="uniF63F" unicode="&#xf63f;" 
d="M48 23l450 576h-361l8 68h490l-530 -683z" />
    <glyph glyph-name="uniF640" unicode="&#xf640;" horiz-adv-x="481" 
d="M393 345q35 -16 57 -48q26 -38 26 -90q0 -99 -61 -160q-60 -60 -161 -60q-92 0 -142 52q-48 49 -48 132q0 70 36 118q32 43 87 61q-29 19 -44 46q-20 34 -20 79q0 92 54 148q54 55 143 55q82 0 129 -48q44 -45 44 -122q0 -59 -28 -102q-27 -42 -72 -61zM299 377
q53 0 87 32q36 34 36 94q0 50 -30 79q-28 28 -79 28q-52 0 -83 -31q-38 -36 -38 -96q0 -45 28 -75q29 -31 79 -31zM258 56q66 0 102 35q41 39 41 106q0 59 -37 89q-31 27 -86 27q-63 0 -99 -39q-39 -43 -39 -101q0 -54 31 -85q32 -32 87 -32z" />
    <glyph glyph-name="uniF641" unicode="&#xf641;" horiz-adv-x="501" 
d="M177 -16l-51 41l175 208q-50 -10 -105 7t-91 53q-51 52 -51 132q0 113 71 184q69 69 178 69q101 0 162 -61q53 -53 53 -138q0 -63 -26 -116q-21 -44 -79 -109zM296 610q-72 0 -116 -44q-51 -49 -51 -135q0 -54 34 -91q41 -43 111 -43q71 0 120 51q49 52 49 124
q0 64 -44 102q-40 36 -103 36z" />
    <glyph glyph-name="uniF6BA" unicode="&#xf6ba;" horiz-adv-x="320" 
d="M72 302l9 74h220l-9 -74h-220z" />
    <glyph glyph-name="uniF6BB" unicode="&#xf6bb;" horiz-adv-x="580" 
d="M92 307l8 64h440l-8 -64h-440z" />
    <glyph glyph-name="uniF6BC" unicode="&#xf6bc;" horiz-adv-x="800" 
d="M92 307l8 64h660l-8 -64h-660z" />
    <glyph glyph-name="uniF6C3" unicode="&#xf6c3;" 
d="M181 -206l76 156l64 -30l-92 -150z" />
    <glyph glyph-name="uniF6C9" unicode="&#xf6c9;" 
d="M440 882l65 -45l-168 -117l-39 32z" />
    <glyph glyph-name="uniF6CA" unicode="&#xf6ca;" 
d="M345 805l97 76l51 -41l-154 -119l-126 119l53 41z" />
    <glyph glyph-name="uniF6CB" unicode="&#xf6cb;" 
d="M390 778q0 22 15 38q18 19 42 19q19 0 32 -12q13 -13 13 -31q0 -24 -16 -42q-17 -17 -40 -17q-21 0 -34 13q-12 12 -12 32zM200 778q0 22 15 38q18 19 42 19q19 0 32 -12q13 -13 13 -31q0 -24 -16 -42q-17 -17 -40 -17q-21 0 -34 13q-12 12 -12 32z" />
    <glyph glyph-name="uniF6CE" unicode="&#xf6ce;" 
d="M339 720l-138 117l75 45l110 -130z" />
    <glyph glyph-name="uniF6CF" unicode="&#xf6cf;" 
d="M362 882l65 -40l-162 -122l-39 26zM512 882l65 -40l-162 -122l-39 26z" />
    <glyph glyph-name="uniF6D0" unicode="&#xf6d0;" 
d="M180 733l8 64h320l-8 -64h-320z" />
    <glyph glyph-name="uniF6D1" unicode="&#xf6d1;" 
d="M196 818l71 23q5 -25 24 -40q20 -16 58 -16q37 0 60 16q23 15 28 40l67 -23q-16 -48 -62 -74q-41 -23 -95 -23q-68 0 -108 32q-32 26 -43 65z" />
    <glyph glyph-name="uniF6D4" unicode="&#xf6d4;" 
d="M178 594l60 23q8 -29 28 -44q20 -16 55 -16q33 0 55 15q23 17 32 45l60 -23q-21 -46 -54 -70q-38 -27 -93 -27q-58 0 -95 28q-35 28 -48 69z" />
    <glyph glyph-name="uniF6DC" unicode="&#xf6dc;" horiz-adv-x="292" 
d="M104 0l73 597h-112l48 70h147l-82 -667h-74z" />
    <glyph glyph-name="uniF6DE" unicode="&#xf6de;" horiz-adv-x="600" 
d="M69 181l6 64h495l-6 -64h-495z" />
    <glyph glyph-name="nbspace" horiz-adv-x="233" 
 />
    <glyph glyph-name="hyphenminus" horiz-adv-x="320" 
d="M72 176l9 74h220l-9 -74h-220z" />
    <glyph glyph-name="dotlessi1" horiz-adv-x="208" 
d="M119 415h72l-51 -415h-72z" />
    </font>
</defs>
</svg>
